Jump to content

Dobrodošli na Balkandownload.org
Tražite domaće knjige, exyu magazine, sinhronizirane crtane filmove, PC i ostale igre, strane i domaće filmove, dokumentarce, stranu i domaću muziku, itd. ? Ne morate tražiti dalje jer sve ćete to naći kod nas, uredno postavljeno i spremno za download. Osim toga registracijom možete sudjelovati u raznim postojećim temama na forumu, otvarati nove teme, sudjelovati u chatu i još mnogo toga. Ako već imaš otvoren račun, logiraj se ovde ,a ako želiš saznati zašto smo najbolji otvori novi račun i uverite se sami :)
Photo

Para Elisa (2013) AKA For Elise

2013 horor triler španjolska

  • Please log in to reply
No replies to this topic

#1
LEMONZOO

LEMONZOO

    Advanced Member

  • VIP
  • PipPipPip
  • 739 posts
  • 2997 thanks
  • LocationGavran Mahala

Para Elisa [BluRay Rip][AC3 2.0 Español Castellano][2013]

11tvapt.jpg

Please Login or Register to see this Hidden Content

Para Elisa is a terrifying story based on a simple, innocent children's game. Something that looks naive and harmless turns into the worst nightmare, into the struggle to escape a tragic and expected end, into an explicit and inevitable horror.

General
Complete name : Para Elisa [BluRay Rip][AC3 2.0 Español Castellano][2013].avi
Format : AVI
Format/Info : Audio Video Interleave
File size : 1.19 GiB
Duration : 1h 13mn
Overall bit rate : 2 307 Kbps
Writing application : VirtualDubMod 1.5.10.2 (build 2540/release)
Writing library : VirtualDubMod build 2540/release

Video
ID : 0
Format : MPEG-4 Visual
Format profile : [email protected]
Format settings, BVOP : No
Format settings, QPel : No
Format settings, GMC : No warppoints
Format settings, Matrix : Default (H.263)
Codec ID : XVID
Codec ID/Hint : XviD
Duration : 1h 13mn
Bit rate : 1 914 Kbps
Width : 720 pixels
Height : 304 pixels
Display aspect ratio : 2.35:1
Frame rate : 24.000 fps
Color space : YUV
Chroma subsampling : 4:2:0
Bit depth : 8 bits
Scan type : Progressive
Compression mode : Lossy
Bits/(Pixel*Frame) : 0.364
Stream size : 1 008 MiB (83%)
Writing library : XviD 64

Audio
ID : 1
Format : AC-3
Format/Info : Audio Coding 3
Mode extension : CM (complete main)
Format settings, Endianness : Big
Codec ID : 2000
Duration : 1h 13mn
Bit rate mode : Constant
Bit rate : 384 Kbps
Channel(s) : 2 channels
Channel positions : Front: L R
Sampling rate : 48.0 KHz
Bit depth : 16 bits
Compression mode : Lossy
Stream size : 202 MiB (17%)
Alignment : Split accross interleaves
Interleave, duration : 42 ms (1.00 video frame)
Interleave, preload duratio : 500 ms


Para_Elisa_Blu_Ray_Rip_AC3_2_0_Espa_ol_C

Para_Elisa_Blu_Ray_Rip_AC3_2_0_Espa_ol_C

Para_Elisa_Blu_Ray_Rip_AC3_2_0_Espa_ol_C

Para_Elisa_Blu_Ray_Rip_AC3_2_0_Espa_ol_C

Hidden Content
You'll be able to see the hidden content once you thank this post.

English subtitle:

Please Login or Register to see this Hidden Content







Also tagged with one or more of these keywords: 2013, horor, triler, španjolska

0 user(s) are reading this topic

0 members, 0 guests, 0 anonymous users