Jump to content

Dobrodošli na Balkandownload.org
Tražite domaće knjige, exyu magazine, sinhronizirane crtane filmove, PC i ostale igre, strane i domaće filmove, dokumentarce, stranu i domaću muziku, itd. ? Ne morate tražiti dalje jer sve ćete to naći kod nas, uredno postavljeno i spremno za download. Osim toga registracijom možete sudjelovati u raznim postojećim temama na forumu, otvarati nove teme, sudjelovati u chatu i još mnogo toga. Ako već imaš otvoren račun, logiraj se ovde ,a ako želiš saznati zašto smo najbolji otvori novi račun i uverite se sami :)
Photo

Kiwi Magic: Ultimate New Zealand (2003)

Novi Zeland 2003 maori priroda

  • Please log in to reply
No replies to this topic

#1
LEMONZOO

LEMONZOO

    Advanced Member

  • VIP
  • PipPipPip
  • 739 posts
  • 3067 thanks
  • LocationGavran Mahala

Greg.Grainger.Kiwi.Magic.Ultimate.New.Zealand.DVB.Xvid.AC3.www.mvgroup.org

kiwi_magic_ultimate_new_zealand.jpg

Capturing the scenic beauty, rich culture, quaint characters and high adventures of New Zealand. The adventure starts off on top of New Zealand's highest mountain, Aoraki Mount Cook, a place renowned for its scenic beauty and awesome adventures. Sea kayaking under and around glaciers, ice climbing high in the mountains, and land on fresh snow in a ski plane. On Stewart Island we go in search of the national symbol, the Kiwi, as it comes close enough to touch.
The adrenalin capital of the world, Queenstown, shows just how it's gained its title. Our helicopter guide "Choppy Pattersen" takes us from extreme to extreme, with jet boats narrowly missing cliff faces, to the world's fastest adventure ride (Fly By Wire). Finally we're escorted to Blanket Bay, one of the world's most luxurious lodges. We cruise through the visually spectacular Milford Sound in our ship the Milford Wanderer. Sailing alongside huge snow-clad mountains towering out of the ocean, with fur seals and waterfalls hanging off every corner.
On the wild west coast it's festive season in Hokitika. The annual Wild Food Festival showcases the most unusual foods and characters. Scorpions, seagull, grasshoppers, worms and local huhu grubs are served up for those game enough to try. The thermal wonderland of Rotorua displays active geysers, mud pools, sulphur craters and an active volcano which spits boiling mud hundreds of metres in the air. Our guide "Sonny"teaches a traditional Haka before receiving a taamoco, a traditional tattoo.
The Tongariro crossing is one of New Zealand's most famous walks. We explore the emerald lakes and sulphur vents in the harshest conditions possible. Take a step back in time to the 1930's in Napier, the Art Deco capital of the world. Vintage cars, motor bikes, planes, soap box derby's, dancing and fashion are shown to us by our 1930's guide, Bertie.

General
Complete name               : Greg.Grainger.Kiwi.Magic.Ultimate.New.Zealand.DVB.Xvid.AC3.www.mvgroup.org.avi
Format                      : AVI
Format/Info                 : Audio Video Interleave
File size                   : 744 MiB
Duration                    : 43mn 19s
Overall bit rate            : 2 402 Kbps
Writing application         : VirtualDubMod 1.5.10.2 (build 2540/release)
Writing library             : VirtualDubMod build 2540/release

Video
ID                          : 0
Format                      : MPEG-4 Visual
Format profile              : [email protected]
Format settings, BVOP       : 2
Format settings, QPel       : No
Format settings, GMC        : No warppoints
Format settings, Matrix     : Default (H.263)
Muxing mode                 : Packed bitstream
Codec ID                    : XVID
Codec ID/Hint               : XviD
Duration                    : 43mn 19s
Bit rate                    : 2 201 Kbps
Width                       : 720 pixels
Height                      : 400 pixels
Display aspect ratio        : 16:9
Frame rate                  : 25.000 fps
Color space                 : YUV
Chroma subsampling          : 4:2:0
Bit depth                   : 8 bits
Scan type                   : Progressive
Compression mode            : Lossy
Bits/(Pixel*Frame)          : 0.306
Stream size                 : 682 MiB (92%)
Writing library             : XviD 1.0.3 (UTC 2004-12-20)

Audio
ID                          : 1
Format                      : AC-3
Format/Info                 : Audio Coding 3
Mode extension              : CM (complete main)
Format settings, Endianness : Big
Codec ID                    : 2000
Duration                    : 43mn 19s
Bit rate mode               : Constant
Bit rate                    : 192 Kbps
Channel(s)                  : 2 channels
Channel positions           : Front: L R
Sampling rate               : 48.0 KHz
Bit depth                   : 16 bits
Compression mode            : Lossy
Stream size                 : 59.5 MiB (8%)
Alignment                   : Split accross interleaves
Interleave, duration        : 40 ms (1.00 video frame)
Interleave, preload duratio : 64 ms


Greg_Grainger_Kiwi_Magic_Ultimate_New_Ze

Greg_Grainger_Kiwi_Magic_Ultimate_New_Ze

Greg_Grainger_Kiwi_Magic_Ultimate_New_Ze

Greg_Grainger_Kiwi_Magic_Ultimate_New_Ze

Hidden Content
You'll be able to see the hidden content once you thank this post.


Thanked by 4 Members:
robi2 , pulmo61 , Dany Bhoy , cavaliero




Also tagged with one or more of these keywords: Novi Zeland, 2003, maori, priroda

0 user(s) are reading this topic

0 members, 0 guests, 0 anonymous users