Jump to content

Dobrodošli na Balkandownload.org
Tražite domaće knjige, exyu magazine, sinhronizirane crtane filmove, PC i ostale igre, strane i domaće filmove, dokumentarce, stranu i domaću muziku, itd. ? Ne morate tražiti dalje jer sve ćete to naći kod nas, uredno postavljeno i spremno za download. Osim toga registracijom možete sudjelovati u raznim postojećim temama na forumu, otvarati nove teme, sudjelovati u chatu i još mnogo toga. Ako već imaš otvoren račun, logiraj se ovde ,a ako želiš saznati zašto smo najbolji otvori novi račun i uverite se sami :)
Photo

Moontrap (1989)

1989 horor znanstvena fantastika bruce campbell walter koenig

  • Please log in to reply
No replies to this topic

#1
LEMONZOO

LEMONZOO

    Advanced Member

  • VIP
  • PipPipPip
  • 739 posts
  • 2970 thanks
  • LocationGavran Mahala

Moontrap.1989.BRRip.Xvid.AC3.eojpek1

moontrapxxj2q.jpg

Please Login or Register to see this Hidden Content

During a routine flight, two veteran space shuttle pilots discover an alien artifact and bring it back to earth. It soon turns out to be an extraterrestrial war robot, which is able to recycle any biological or technical material for its own deadly use. The two astronauts are sent to the moon, where Nasa expects to uncover the mystery of the alien robot's origin. They discover an ancient humanoid culture and battle the ultimate threat of the war machines heading to earth.

General
Complete name               : Moontrap.1989.BRRip.Xvid.AC3.eojpek1.avi
Format                      : AVI
Format/Info                 : Audio Video Interleave
File size                   : 1.61 GiB
Duration                    : 1h 30mn
Overall bit rate            : 2 557 Kbps

Video
ID                          : 0
Format                      : MPEG-4 Visual
Format profile              : Advanced [email protected]
Format settings, BVOP       : 2
Format settings, QPel       : No
Format settings, GMC        : No warppoints
Format settings, Matrix     : Default (H.263)
Codec ID                    : XVID
Codec ID/Hint               : XviD
Duration                    : 1h 30mn
Bit rate                    : 2 100 Kbps
Width                       : 720 pixels
Height                      : 400 pixels
Display aspect ratio        : 16:9
Frame rate                  : 24.000 fps
Color space                 : YUV
Chroma subsampling          : 4:2:0
Bit depth                   : 8 bits
Scan type                   : Progressive
Compression mode            : Lossy
Bits/(Pixel*Frame)          : 0.304
Stream size                 : 1.32 GiB (82%)
Writing library             : XviD 64

Audio
ID                          : 1
Format                      : AC-3
Format/Info                 : Audio Coding 3
Mode extension              : CM (complete main)
Format settings, Endianness : Big
Codec ID                    : 2000
Duration                    : 1h 30mn
Source duration             : 1h 30mn
Bit rate mode               : Constant
Bit rate                    : 448 Kbps
Channel(s)                  : 6 channels
Channel positions           : Front: L C R, Side: L R, LFE
Sampling rate               : 48.0 KHz
Bit depth                   : 16 bits
Compression mode            : Lossy
Stream size                 : 289 MiB (18%)
Alignment                   : Aligned on interleaves
Interleave, duration        : 42 ms (1.00 video frame)


Moontrap_1989_BRRip_Xvid_AC3_eojpek1_avi

Moontrap_1989_BRRip_Xvid_AC3_eojpek1_avi

Moontrap_1989_BRRip_Xvid_AC3_eojpek1_avi

Moontrap_1989_BRRip_Xvid_AC3_eojpek1_avi

Hidden Content
You'll be able to see the hidden content once you thank this post.






Also tagged with one or more of these keywords: 1989, horor, znanstvena fantastika, bruce campbell, walter koenig

0 user(s) are reading this topic

0 members, 0 guests, 0 anonymous users