Jump to content

Dobrodošli na Balkandownload.org
Tražite domaće knjige, exyu magazine, sinhronizirane crtane filmove, PC i ostale igre, strane i domaće filmove, dokumentarce, stranu i domaću muziku, itd. ? Ne morate tražiti dalje jer sve ćete to naći kod nas, uredno postavljeno i spremno za download. Osim toga registracijom možete sudjelovati u raznim postojećim temama na forumu, otvarati nove teme, sudjelovati u chatu i još mnogo toga. Ako već imaš otvoren račun, logiraj se ovde ,a ako želiš saznati zašto smo najbolji otvori novi račun i uverite se sami :)
Photo

Rise of the Entrepreneur: The Search for a Better Way (2014)

2014

  • Please log in to reply
No replies to this topic

#1
LEMONZOO

LEMONZOO

    Advanced Member

  • VIP
  • PipPipPip
  • 739 posts
  • 3044 thanks
  • LocationGavran Mahala

Rise of the Entrepreneur: The Search for a Better Way (2014) WEB-DL

34055db588d232980e381411114abff7_jpg_142

Please Login or Register to see this Hidden Content

The world is changing faster than ever. Technology is accelerating, job security is declining and income inequality is increasing. People are overworked and underpaid. With less time and freedom, people are left wondering if there is a better way. Our changing economy has led to the rise of the entrepreneur. The fastest, most dependable and controllable way to become wealthy is to own your own business. This documentary gathers today's best experts and thought leaders to forever change how you view work and wealth. Featuring experts Jordan Adler, John Assaraf, Kody Bateman, Chris Brogan, Richard Bliss Brooke, Ali Brown, Les Brown, Jack Canfield, Harry S. Dent, Jr., Dr. Linda Ferrell, Dr. OC Ferrell, Mark Victor Hansen, Kevin Harrington, Kim Kiyosaki, Robert Kiyosaki, Joseph N. Mariano, Dr. Ivan Misner, Paul Zane Pilzer, Bob Proctor, Susan Sly, Loren Slocum, Kevin Thompson, Brian Tracy, Eric Worre and Sandra Yancey.

General
Complete name               : Rise of the Entrepreneur - The Search for a Better Way (2014) WEB-DL.mp4
Format                      : MPEG-4
Format profile              : Base Media / Version 2
Codec ID                    : mp42
File size                   : 327 MiB
Duration                    : 1h 0mn
Overall bit rate mode       : Variable
Overall bit rate            : 752 Kbps
Encoded date                : UTC 2014-11-21 02:30:02
Tagged date                 : UTC 2014-11-21 02:30:02

Video
ID                          : 1
Format                      : AVC
Format/Info                 : Advanced Video Codec
Format profile              : [email protected]
Format settings, CABAC      : Yes
Format settings, ReFrames   : 4 frames
Codec ID                    : avc1
Codec ID/Info               : Advanced Video Coding
Duration                    : 1h 0mn
Source duration             : 1h 0mn
Bit rate mode               : Variable
Bit rate                    : 697 Kbps
Maximum bit rate            : 819 Kbps
Width                       : 640 pixels
Height                      : 272 pixels
Display aspect ratio        : 2.35:1
Frame rate mode             : Constant
Frame rate                  : 15.000 fps
Color space                 : YUV
Chroma subsampling          : 4:2:0
Bit depth                   : 8 bits
Scan type                   : Progressive
Bits/(Pixel*Frame)          : 0.267
Stream size                 : 303 MiB (93%)
Source stream size          : 303 MiB (93%)
Language                    : English
Encoded date                : UTC 2014-11-21 02:30:02
Tagged date                 : UTC 2014-11-21 02:30:02
Color range                 : Limited
mdhd_Duration               : 3641487

Audio
ID                          : 2
Format                      : AAC
Format/Info                 : Advanced Audio Codec
Format profile              : LC
Codec ID                    : 40
Duration                    : 1h 0mn
Source duration             : 1h 0mn
Bit rate mode               : Constant
Bit rate                    : 53.5 Kbps
Channel(s)                  : 2 channels
Channel positions           : Front: L R
Sampling rate               : 44.1 KHz
Compression mode            : Lossy
Stream size                 : 23.2 MiB (7%)
Source stream size          : 23.2 MiB (7%)
Language                    : English
Encoded date                : UTC 2014-11-21 02:30:02
Tagged date                 : UTC 2014-11-21 02:30:02
mdhd_Duration               : 3638682

Rise_of_the_Entrepreneur_The_Search_for_

Rise_of_the_Entrepreneur_The_Search_for_

Rise_of_the_Entrepreneur_The_Search_for_

Rise_of_the_Entrepreneur_The_Search_for_

Hidden Content
You'll be able to see the hidden content once you thank this post.

Edited by LEMONZOO, 14 May 2015 - 21:47.


Thanked by 3 Members:
mancity , faresha , Seeker




Also tagged with one or more of these keywords: 2014

0 user(s) are reading this topic

0 members, 0 guests, 0 anonymous users