Jump to content

Dobrodošli na Balkandownload.org
Tražite domaće knjige, exyu magazine, sinhronizirane crtane filmove, PC i ostale igre, strane i domaće filmove, dokumentarce, stranu i domaću muziku, itd. ? Ne morate tražiti dalje jer sve ćete to naći kod nas, uredno postavljeno i spremno za download. Osim toga registracijom možete sudjelovati u raznim postojećim temama na forumu, otvarati nove teme, sudjelovati u chatu i još mnogo toga. Ako već imaš otvoren račun, logiraj se ovde ,a ako želiš saznati zašto smo najbolji otvori novi račun i uverite se sami :)
Photo

Branio sam Mladu Bosnu: Film (2014)


2 replies to this topic

#1
Tobacco Road

Tobacco Road

    The Warez GOD

  • Tobacco
  • PipPipPipPipPipPipPipPipPipPip
  • 23,348 posts
  • 995799 thanks
  • Locationscrls

Branio sam Mladu Bosnu: Film (2014) PAL DVD


 

 

Kako skinuti nesto sa Balkandownload-a?

www.slideshare.net/bd4yu/kako-skidati-fajlove-sa-balkan-download-a

Kako da pronadjete zeljeni sadrzaj na forumu? 

www.balkandownload.org/topic/40428-kako-pronaci-zeljeni-sadrzaj-na-forumu/

Najmračniji krugovi pakla su rezervisani za one koji u vremenima moralne krize ostanu neutralni i suzdržani -Dante Alighieri


Thanked by 339 Members:

#2
Biotloneta

Biotloneta

    Bronze Member

  • Moderator
  • PipPipPipPip
  • 1,409 posts
  • 65838 thanks
  • LocationRobija
Branio sam mladu Bosnu (2014)
 
 
MV5BZDBmZWFkZTktNjRmMy00M2MwLTljNGMtMTYz

Please Login or Register to see this Hidden Content

 
Opis: 28. jun 1914. godine-Gavrilo Princip i njegovi drugovi, mladici koji snivaju o slobodi, izvršice atentat na prestolonaslednika Austrougarske monarhije Franca Ferdinanda. Na sudenju koje sledi, u najvažnijem sudskom porocesu XX veka, branice ih mladi pravnik Rudolf Cistler. Kad upozna zanose i ideale svojih branjenika, naci ce se u vrtlogu emotivne drame, spreman na najveci rizik. Ovo je prica o Sarajevskom atentatu iz njegovog ugla...
 
Uloge:
Nikola Rakocevic Rudolf Cistler
Vuk Kostic Veljko Cubrilovic
Nebojša Glogovac Leo Pfefer
Vaja Dujovic Jovanka Cubrilovic
Miloš Ðurovic Gavrilo Princip
Marko Grabež Nedeljko Cabrinovic
Marko Pavlovic Trifko Grabež
Boris Isakovic Tužilac Franjo Švara
Branislav Lecic Ivasjuk
Dragan Petrovic Sudija Kurinaldi
Radoslav Milenkovic Malek
Novak Bilbija Mitar Kerovic
Branislav Tomaševic Miško Jovanovic
Vucic Perovic Vaso Cubrilovic
Ljubomir Bandovic Narednik Murat
Marko Janketic Ivo Andric
 
Režija: Srdan Koljevic
 
Žanr: Drama
 
mIhbr3g.jpg

 

Hidden Content
You'll be able to see the hidden content once you thank this post.


  tumblr_o89ik1YZEl1ssbvp5o1_500.gif

 

Za repload mrtvih linkova (domaćih filmova) ili želje za postavljanjem nekog filma kog ne možete da pronađete, obratite mi se putem privatne poruke.


Thanked by 173 Members:

#3
Wolf 13

Wolf 13

    Advanced Member

  • Members
  • PipPipPip
  • 426 posts
  • 33604 thanks
Branio sam Mladu Bosnu (2014) DVDrip DD5.1 x264 by Wolf
(MKV) HQ
 
2lxyyUd.jpg
 

Please Login or Register to see this Hidden Content

 

General
Unique ID                   : 15538886219612828544593265872249109357 (0xBB0AE3D96DB23D95044A7C782C53B6D)
Complete name               : Branio sam Mladu Bosnu (2014) DVDrip DD5.1 x264 by Wolf.mkv
Format                      : Matroska
Format version              : Version 4
File size                   : 2.17 GiB
Duration                    : 2 h 47 min
Overall bit rate            : 1 857 kb/s
Encoded date                : UTC 2019-03-28 20:51:25
Writing application         : mkvmerge v32.0.0 ('Astral Progressions') 64-bit
Writing library             : libebml v1.3.7 + libmatroska v1.5.0 / Lavf58.20.100
 
Video
ID                          : 1
Format                      : AVC
Format/Info                 : Advanced Video Codec
Format profile              : [email protected]
Format settings             : CABAC / 16 Ref Frames
Format settings, CABAC      : Yes
Format settings, ReFrames   : 16 frames
Codec ID                    : V_MPEG4/ISO/AVC
Duration                    : 2 h 47 min
Bit rate                    : 1 600 kb/s
Width                       : 720 pixels
Height                      : 552 pixels
Display aspect ratio        : 1.85:1
Frame rate mode             : Constant
Frame rate                  : 25.000 FPS
Color space                 : YUV
Chroma subsampling          : 4:2:0
Bit depth                   : 8 bits
Scan type                   : Progressive
Bits/(Pixel*Frame)          : 0.161
Stream size                 : 1.87 GiB (86%)
Title                       : Branio sam Mladu Bosnu (2014)
Writing library             : x264 core 157 r2935 545de2f
Encoding settings           : cabac=1 / ref=16 / deblock=1:-1:-1 / analyse=0x3:0x133 / me=umh / subme=10 / psy=1 / psy_rd=1.00:0.15 / mixed_ref=1 / me_range=24 / chroma_me=1 / trellis=2 / 8x8dct=1 / cqm=0 / deadzone=21,11 / fast_pskip=1 / chroma_qp_offset=-3 / threads=6 / lookahead_threads=1 / sliced_threads=0 / nr=0 / decimate=1 / interlaced=0 / bluray_compat=0 / constrained_intra=0 / bframes=8 / b_pyramid=2 / b_adapt=2 / b_bias=0 / direct=3 / weightb=1 / open_gop=0 / weightp=2 / keyint=250 / keyint_min=25 / scenecut=40 / intra_refresh=0 / rc_lookahead=60 / rc=2pass / mbtree=1 / bitrate=1600 / ratetol=1.0 / qcomp=0.60 / qpmin=0 / qpmax=69 / qpstep=4 / cplxblur=20.0 / qblur=0.5 / vbv_maxrate=300000 / vbv_bufsize=300000 / nal_hrd=none / filler=0 / ip_ratio=1.40 / aq=1:1.00
Language                    : Serbian
Default                     : Yes
Forced                      : No
Color range                 : Limited
Color primaries             : BT.601 PAL
Transfer characteristics    : BT.709
Matrix coefficients         : BT.601
 
Audio
ID                          : 2
Format                      : E-AC-3
Format/Info                 : Enhanced AC-3
Commercial name             : Dolby Digital Plus
Codec ID                    : A_EAC3
Duration                    : 2 h 47 min
Bit rate mode               : Constant
Bit rate                    : 256 kb/s
Channel(s)                  : 6 channels
Channel layout              : L R C LFE Ls Rs
Sampling rate               : 48.0 kHz
Frame rate                  : 31.250 FPS (1536 SPF)
Compression mode            : Lossy
Delay relative to video     : -5 ms
Stream size                 : 307 MiB (14%)
Title                       : Branio sam Mladu Bosnu (2014)
Language                    : Serbian
Service kind                : Complete Main
Default                     : Yes
Forced                      : No
 
epYscVA.png
Hidden Content
You'll be able to see the hidden content once you thank this post.
zbNKcak.jpg
Hidden Content
You'll be able to see the hidden content once you thank this post.
auDPtNK.png
Eci6Esl.jpg


Thanked by 77 Members:



0 user(s) are reading this topic

0 members, 0 guests, 0 anonymous users