Jump to content

Dobrodošli na Balkandownload.org
Tražite domaće knjige, exyu magazine, sinhronizirane crtane filmove, PC i ostale igre, strane i domaće filmove, dokumentarce, stranu i domaću muziku, itd. ? Ne morate tražiti dalje jer sve ćete to naći kod nas, uredno postavljeno i spremno za download. Osim toga registracijom možete sudjelovati u raznim postojećim temama na forumu, otvarati nove teme, sudjelovati u chatu i još mnogo toga. Ako već imaš otvoren račun, logiraj se ovde ,a ako želiš saznati zašto smo najbolji otvori novi račun i uverite se sami :)
Photo

Neprijatelj (2011)


4 replies to this topic

#1
Sabah

Sabah

    Gold Member

  • Global moderator
  • 6,860 posts
  • 134081 thanks

Neprijatelj (2011)


imdb top 250 prevod

http://www.balkandownload.org/topic/40972-imdb-250-sa-prevodima/]

Thanked by 156 Members:

#2
nikolakralj100

nikolakralj100

    Advanced Member

  • Members
  • PipPipPip
  • 346 posts
  • 20475 thanks

DVDr

 

BnOh7f8.jpg

 

XafICVg.jpg

 

Hidden Content
You'll be able to see the hidden content once you thank this post.


Thanked by 108 Members:

#3
Biotloneta

Biotloneta

    Bronze Member

  • Moderator
  • PipPipPipPip
  • 1,397 posts
  • 63997 thanks
  • LocationRobija
Neprijatelj (2011)
 
MV5BZDAzOTgzYmUtZjRlMi00ZDA1LTg5ZjktNTU3
 

Please Login or Register to see this Hidden Content

 

Opis: Godina 1995, 7. dan mira nakon potpisivanja Dejtonskog sporazuma. Inženjerska jedinica deminira granicu između Republike Srpske i Federacije Bosne i Hercegovine. Svaki od vojnika nosi svoj teret ratnih iskustava i trauma, svaki se suočava sa strahovima na sopstveni način. Jedni skloni autodestrukciji, drugi srećni što su živi, treći katatonični posle doživljenih trauma, četvrti okrenuti molitvama, peti šali i smehu tamo gde im mesto i nije, neki snovima o povratku porodici, a neki okrvavljenih ruku i krišom napunjenih džepova pokušavaju se prikriti. Kao i na samom početku tek završenog rata, dovoljna je jedna iskra ludila, da se pokrene “perpetum mobile” sukoba i nasilja među prijateljima.

 
Uloge:
Aleksandar Stojković Cole
Vuk Kostić Čaki
Tihomir Stanić Daba
Ljubomir Bandović Sirovina
Marija Pikić Danica
Slavko Štimac Vesko
Dragan Marinković Lik
Goran Jokić Faruk
Stefan Bundalo Guzica
Vladimir Đorđević Sivi
Duško Mazalica Jovica
Vladan Cvetković Komandant IFOR-a
 
Režija: Dejan Zečević
 
Žanr: Drama, Triler, Horor

 

o7sib2bpwme.png
 
Ny8ZlBl.png
 
VImz6XH.jpg
 
Neprijatelj (2011) WEB-DL.x264.mp4
 
uptobox4cf5d.jpg
 
Hidden Content
You'll be able to see the hidden content once you thank this post.

  tumblr_o89ik1YZEl1ssbvp5o1_500.gif

 

Za repload mrtvih linkova (domaćih filmova) ili želje za postavljanjem nekog filma kog ne možete da pronađete, obratite mi se putem privatne poruke.


Thanked by 77 Members:

#4
Wolf 13

Wolf 13

    Advanced Member

  • Members
  • PipPipPip
  • 426 posts
  • 33313 thanks
Neprijatelj (2011) DVDrip DD5.1 x264 by Wolf
(MKV)
 
hctDzni.jpg
 

Please Login or Register to see this Hidden Content

 

General
Unique ID                   : 37656387420650648449188865157619284012 (0x1C545B3DE35BEDE02990F1267BBC782C)
Complete name               : Neprijatelj (2011) DVDrip DD5.1 x264 by Wolf.mkv
Format                      : Matroska
Format version              : Version 4
File size                   : 1.36 GiB
Duration                    : 1 h 44 min
Overall bit rate            : 1 855 kb/s
Encoded date                : UTC 2019-04-01 21:54:50
Writing application         : mkvmerge v32.0.0 ('Astral Progressions') 64-bit
Writing library             : libebml v1.3.7 + libmatroska v1.5.0 / Lavf58.20.100
 
Video
ID                          : 1
Format                      : AVC
Format/Info                 : Advanced Video Codec
Format profile              : [email protected]
Format settings             : CABAC / 16 Ref Frames
Format settings, CABAC      : Yes
Format settings, ReFrames   : 16 frames
Codec ID                    : V_MPEG4/ISO/AVC
Duration                    : 1 h 44 min
Bit rate                    : 1 600 kb/s
Width                       : 702 pixels
Height                      : 436 pixels
Display aspect ratio        : 2.35:1
Frame rate mode             : Constant
Frame rate                  : 25.000 FPS
Color space                 : YUV
Chroma subsampling          : 4:2:0
Bit depth                   : 8 bits
Scan type                   : Progressive
Bits/(Pixel*Frame)          : 0.209
Stream size                 : 1.17 GiB (86%)
Title                       : Neprijatelj (2011)
Writing library             : x264 core 157 r2935 545de2f
Encoding settings           : cabac=1 / ref=16 / deblock=1:-1:-1 / analyse=0x3:0x133 / me=umh / subme=10 / psy=1 / psy_rd=1.00:0.15 / mixed_ref=1 / me_range=24 / chroma_me=1 / trellis=2 / 8x8dct=1 / cqm=0 / deadzone=21,11 / fast_pskip=1 / chroma_qp_offset=-3 / threads=6 / lookahead_threads=1 / sliced_threads=0 / nr=0 / decimate=1 / interlaced=0 / bluray_compat=0 / constrained_intra=0 / bframes=8 / b_pyramid=2 / b_adapt=2 / b_bias=0 / direct=3 / weightb=1 / open_gop=0 / weightp=2 / keyint=250 / keyint_min=25 / scenecut=40 / intra_refresh=0 / rc_lookahead=60 / rc=2pass / mbtree=1 / bitrate=1600 / ratetol=1.0 / qcomp=0.60 / qpmin=0 / qpmax=69 / qpstep=4 / cplxblur=20.0 / qblur=0.5 / vbv_maxrate=300000 / vbv_bufsize=300000 / nal_hrd=none / filler=0 / ip_ratio=1.40 / aq=1:1.00
Language                    : Serbian
Default                     : Yes
Forced                      : No
Color range                 : Limited
Color primaries             : BT.601 PAL
Transfer characteristics    : BT.709
Matrix coefficients         : BT.601
 
Audio
ID                          : 2
Format                      : E-AC-3
Format/Info                 : Enhanced AC-3
Commercial name             : Dolby Digital Plus
Codec ID                    : A_EAC3
Duration                    : 1 h 44 min
Bit rate mode               : Constant
Bit rate                    : 256 kb/s
Channel(s)                  : 6 channels
Channel layout              : L R C LFE Ls Rs
Sampling rate               : 48.0 kHz
Frame rate                  : 31.250 FPS (1536 SPF)
Compression mode            : Lossy
Delay relative to video     : -5 ms
Stream size                 : 192 MiB (14%)
Title                       : Neprijatelj (2011)
Language                    : Serbian
Service kind                : Complete Main
Default                     : Yes
Forced                      : No
 
epYscVA.png
Hidden Content
You'll be able to see the hidden content once you thank this post.
zbNKcak.jpg
Hidden Content
You'll be able to see the hidden content once you thank this post.
 
BtduGm6.png
RSIYp8K.jpg

Edited by Wolf 13, 02 April 2019 - 11:57.


Thanked by 64 Members:
cicindra 1702 , danijeladanijel , Bange , 303808909 , Atomiswave , thepilgrim , PaladinBL , mastergeneral , kojic , snkrsyourmom , milenica91 , ogorelica , maxstudio.lazic032 , mkatinski , madmax187 , Veljko Pele , chefko , rile1972 , djtomcraft , tiho14 , Doda47 , rafael13 , TeodorM1976 , kenijada , dekie , novicanovica , cmf , SaleXieri , temple , Shoner , uljarica , GoranLiv , Topcider , icaleptir , draganiuss , Paki1234 , Milanche222 , 011gogo , anelkos , khftebvio , Vule83 , dutch83 , Urosito , Adamkovac , nixonns , prsan , vrdule , js1984 , dragansamardzic , maksejadan , dejan.petrovic , Franci , milosst , nizde ml , denimiko1 , Auntiffr , danep , mikula11 , Manipe , starrats , Filaret , Miki_Kiki_Riki , Zelenac1 , preshabgd

#5
Zoran_

Zoran_

    Gold Member

  • VIP
  • PipPipPipPipPipPip
  • 5,983 posts
  • 149019 thanks
Neprijatelj (2011)
 
 
Neprijatelj2011.png
 
Su6Ksi6.jpg
 

Please Login or Register to see this Hidden Content

 
'Neprijatelj' govori o malom inzinjerskom vodu koji je docekao Dejtonski mir u planinama, nedaleko od rusevina u borbi unistene fabrike, a ima duznost da obezbedjuje novonastalu liniju razgranicenja, u prisustvu posmatraca mirovnih snaga IFOR-a, te da ocisti teren od mina, koje je tokom rata i sam postavljao. Svaki od pripadnika voda nosi sa sobom secanja na protekle godine, i svako pokusava da se sa njima nosi na sopstveni nacin - jedni su srecni sto su zivi, drugi katatonicni posle dozivljenih trauma, treci okrenut sali i smehu tamo i gde mu mesto nije, peti su uprljanih ruku i krisom napunjenih dzepova ... U takvoj atmosferi, vod u rusevinama fabrike nalazi zazidani podrum i u njemu na coveka, koji mirno sedi za stolom, pored pepeljare pune opusaka, kao da ih je tu i cekao ...
 
Neprijatelj2011.avi.gif
 
Neprijatelj2011.avi.jpg
 
Oets6ur.gif
 
Neprijatelj (2011) DVDRip avi
 
SFYUbuP.jpg
 
Hidden Content
You'll be able to see the hidden content once you thank this post.

Molbe za moje linkove, šaljite na PP.

 

Zabranjeno je kopiranje mojih linkova,reupload i postavljanje na druge forume!


Thanked by 51 Members:
khftebvio , 4w0nr4 , goransokolovic.fr , netrebamime , Jorgos , Zare94 , dimma2212 , ivke 23 , 303808909 , Atomiswave , PaladinBL , Verdeja , snkrsyourmom , vuk789 , mciplic , Topcider , Dijana1974 , madmax187 , rile1972 , ablepe1 , Dalstevinormalni , nesaBB , napadaj , AccccO , mmilann , Doda47 , TeodorM1976 , kituminaya , kenijada , dekie , MP22 , Milfir , mean machine , vukvucko123 , nu_zajc , temple , zoran48 , Iwaancar , Jokso , milosst , dzogani , uljarica , Schweik , dragica , Franci , beograd1960' , Miki_Kiki_Riki , Xemil , zagortnt , GoranLiv , sicer2005



0 user(s) are reading this topic

0 members, 0 guests, 0 anonymous users