Jump to content

Dobrodošli na Balkandownload.org
Tražite domaće knjige, exyu magazine, sinhronizirane crtane filmove, PC i ostale igre, strane i domaće filmove, dokumentarce, stranu i domaću muziku, itd. ? Ne morate tražiti dalje jer sve ćete to naći kod nas, uredno postavljeno i spremno za download. Osim toga registracijom možete sudjelovati u raznim postojećim temama na forumu, otvarati nove teme, sudjelovati u chatu i još mnogo toga. Ako već imaš otvoren račun, logiraj se ovde ,a ako želiš saznati zašto smo najbolji otvori novi račun i uverite se sami :)
Photo

Bićemo prvaci sveta (2015)


2 replies to this topic

#1
Tobacco Road

Tobacco Road

    The Warez GOD

  • Tobacco
  • PipPipPipPipPipPipPipPipPipPip
  • 23,347 posts
  • 995382 thanks
  • Locationscrls

Bićemo prvaci sveta (2015) DVDRip DivX

 

11209-BPS-Pl.jpg

Please Login or Register to see this Hidden Content


 

Režija: Darko Bajić
Scenario: Gordan Mihić, Nebojša Romčević
 
Glavne uloge: Strahinja Blažić, Miloš Biković, Aleksandar Radojičić, Marko Janketić
 
Žanr: Drama
Zemlja: Srbija
Jezik: srpski
Titlovi: slovenacki hardcoded
 
 
 
Bićemo prvaci sveta je srpski film iz 2015. godine u režiji Darka Bajića, a po scenariju koji su napisali Gordan Mihić i Nebojša Romčević po ideji Zvonimira Šimuneca.
 
Film je premijerno prikazan u Beogradu 26. februara 2015. godine.
 
Film govori o usponu jugoslovenske košarke, te o Svetskom prvenstvu u košarci 1970. koje je održano u Ljubljani i meču između timova Jugoslavije i Sjedinjenih Američkih Država.
 

 

mB7TrZ9.jpg


 

 

Kako skinuti nesto sa Balkandownload-a?

www.slideshare.net/bd4yu/kako-skidati-fajlove-sa-balkan-download-a

Kako da pronadjete zeljeni sadrzaj na forumu? 

www.balkandownload.org/topic/40428-kako-pronaci-zeljeni-sadrzaj-na-forumu/

Najmračniji krugovi pakla su rezervisani za one koji u vremenima moralne krize ostanu neutralni i suzdržani -Dante Alighieri


Thanked by 270 Members:

#2
Wolf 13

Wolf 13

    Advanced Member

  • Members
  • PipPipPip
  • 426 posts
  • 33566 thanks
Bicemo prvaci sveta (2015) DVDrip DD5.1 x264 by Wolf
(MKV) HQ
 
nsDauhj.jpg
 

Please Login or Register to see this Hidden Content

 

General
Unique ID                   : 199482254827395237968400518116950748169 (0x9612E281E60FF4729D7638B366352C09)
Complete name               : Bicemo prvaci sveta (2015) DVDrip DD5.1 x264 by Wolf.mkv
Format                      : Matroska
Format version              : Version 4
File size                   : 1.55 GiB
Duration                    : 2 h 6 min
Overall bit rate            : 1 756 kb/s
Encoded date                : UTC 2019-06-08 17:07:47
Writing application         : mkvmerge v34.0.0 ('Sight and Seen') 64-bit
Writing library             : libebml v1.3.7 + libmatroska v1.5.0 / Lavf58.20.100
 
Video
ID                          : 1
Format                      : AVC
Format/Info                 : Advanced Video Codec
Format profile              : [email protected]
Format settings             : CABAC / 16 Ref Frames
Format settings, CABAC      : Yes
Format settings, ReFrames   : 16 frames
Codec ID                    : V_MPEG4/ISO/AVC
Duration                    : 2 h 6 min
Bit rate                    : 1 500 kb/s
Width                       : 720 pixels
Height                      : 576 pixels
Display aspect ratio        : 16:9
Frame rate mode             : Constant
Frame rate                  : 25.000 FPS
Standard                    : PAL
Color space                 : YUV
Chroma subsampling          : 4:2:0
Bit depth                   : 8 bits
Scan type                   : Progressive
Bits/(Pixel*Frame)          : 0.145
Stream size                 : 1.32 GiB (85%)
Title                       : Bicemo prvaci sveta (2015)
Writing library             : x264 core 157 r2935 545de2f
Encoding settings           : cabac=1 / ref=16 / deblock=1:-1:-1 / analyse=0x3:0x133 / me=umh / subme=10 / psy=1 / psy_rd=1.00:0.15 / mixed_ref=1 / me_range=24 / chroma_me=1 / trellis=2 / 8x8dct=1 / cqm=0 / deadzone=21,11 / fast_pskip=1 / chroma_qp_offset=-3 / threads=6 / lookahead_threads=1 / sliced_threads=0 / nr=0 / decimate=1 / interlaced=0 / bluray_compat=0 / constrained_intra=0 / bframes=8 / b_pyramid=2 / b_adapt=2 / b_bias=0 / direct=3 / weightb=1 / open_gop=0 / weightp=2 / keyint=250 / keyint_min=25 / scenecut=40 / intra_refresh=0 / rc_lookahead=60 / rc=2pass / mbtree=1 / bitrate=1500 / ratetol=1.0 / qcomp=0.60 / qpmin=0 / qpmax=69 / qpstep=4 / cplxblur=20.0 / qblur=0.5 / vbv_maxrate=300000 / vbv_bufsize=300000 / nal_hrd=none / filler=0 / ip_ratio=1.40 / aq=1:1.00
Language                    : Serbian
Default                     : Yes
Forced                      : No
Color range                 : Limited
Color primaries             : BT.601 PAL
Transfer characteristics    : BT.709
Matrix coefficients         : BT.601
 
Audio
ID                          : 2
Format                      : E-AC-3
Format/Info                 : Enhanced AC-3
Commercial name             : Dolby Digital Plus
Codec ID                    : A_EAC3
Duration                    : 2 h 6 min
Bit rate mode               : Constant
Bit rate                    : 256 kb/s
Channel(s)                  : 6 channels
Channel layout              : L R C LFE Ls Rs
Sampling rate               : 48.0 kHz
Frame rate                  : 31.250 FPS (1536 SPF)
Compression mode            : Lossy
Stream size                 : 231 MiB (15%)
Title                       : Bicemo prvaci sveta (2015)
Language                    : Serbian
Service kind                : Complete Main
Default                     : Yes
Forced                      : No
 
Text
ID                          : 3
Format                      : UTF-8
Codec ID                    : S_TEXT/UTF8
Codec ID/Info               : UTF-8 Plain Text
Duration                    : 1 h 54 min
Bit rate                    : 7 b/s
Count of elements           : 176
Stream size                 : 6.13 KiB (0%)
Title                       : BIĆEMO PRVACI SVETA
Language                    : Serbian
Default                     : Yes
Forced                      : No
 
epYscVA.png
Hidden Content
You'll be able to see the hidden content once you thank this post.
zbNKcak.jpg
Hidden Content
You'll be able to see the hidden content once you thank this post.
 
lXHLdcv.png
hQIAY74.jpg

Edited by Wolf 13, 09 June 2019 - 21:12.


Thanked by 145 Members:

#3
Zoran_

Zoran_

    Gold Member

  • VIP
  • PipPipPipPipPipPip
  • 5,989 posts
  • 149650 thanks
Bićemo prvaci sveta (2015)
 
 
Rotdp3l.png
 
Su6Ksi6.jpg
 

Please Login or Register to see this Hidden Content

 
 
Film govori o usponu jugoslovenske košarke, te o Svetskom prvenstvu u košarci 1970. koje je održano u Ljubljani i meču između timova Jugoslavije i Sjedinjenih Američkih Država.
 
49k8nugb.png
 
N1C2299.gif
 
wtm3Nn8.jpg
 
Oets6ur.gif
 
Bicemo prvaci sveta (2015) DVDRip.x264.mkv
 
SFYUbuP.jpg
 
Hidden Content
You'll be able to see the hidden content once you thank this post.

Molbe za moje linkove, šaljite na PP.

 

Zabranjeno je kopiranje mojih linkova,reupload i postavljanje na druge forume!


Thanked by 69 Members:
santisela , 4w0nr4 , Pera34 , AirVex , adjuric78 , Myco00 , Tracker , MiksaNS , filmolend , drags16 , nalogzasve , nemipopovic , 303808909 , veluta011 , goransokolovic.fr , msretan , vukipbg , nsboris , djuradj86 , milanalorica , kockari , Dijana1974 , Staroto , akkovacevic , majstorzatepih , Verdeja , mladja70 , Flippy , zorandju , Deki-Dejan , inicode , tuznicika , sneki811 , zvezdas , arsomilic , dijana31 , bilavs1963 , bogibond , Zorrran , jumanjinz , zagy_2001 , Mateo2009 , Omina Tricko , rusko , pcbbata , mililili , Alenbeg , GORANJ79 , eintracht , leonbagaric150 , foxmolder , konami , urosevac , Simtsche , tihoj , nesom , retype_htc , cigoyner , kanalplus , dzogani , rial.basic , chadjox , zoran48 , Jokso , radonja86 , beograd1960' , dubstylerdub , blauer , Prene



0 user(s) are reading this topic

0 members, 0 guests, 0 anonymous users