Jump to content

Dobrodošli na Balkandownload.org
Tražite domaće knjige, exyu magazine, sinhronizirane crtane filmove, PC i ostale igre, strane i domaće filmove, dokumentarce, stranu i domaću muziku, itd. ? Ne morate tražiti dalje jer sve ćete to naći kod nas, uredno postavljeno i spremno za download. Osim toga registracijom možete sudjelovati u raznim postojećim temama na forumu, otvarati nove teme, sudjelovati u chatu i još mnogo toga. Ako već imaš otvoren račun, logiraj se ovde ,a ako želiš saznati zašto smo najbolji otvori novi račun i uverite se sami :)

Starflight: The Plane That Couldn't Land (1983)

1983 sad znanstvena fantastika

  • Please log in to reply
No replies to this topic



    Advanced Member

  • VIP
  • PipPipPip
  • 717 posts
  • 2351 thanks
  • LocationGavran Mahala

Starflight: The Plane That Couldn't Land (1983)


Please Login or Register to see this Hidden Content

The fictional story of the first "hypersonic" commercial passenger plane, which can make the flight from New York to London in a mere four hours. On the maiden flight of this plane, a minor disaster occurs resulting in the plane actually leaving the Earth's atmosphere and orbiting around the globe. A lack of heat-resistant tiling prevents the plane from simply re-entering the atmosphere. With oxygen (and therefore time) running out, the crew of the plane and the crew on the ground must figure out a way to return the plane and it's passengers to safety.

Complete name : D:\cinemageddon\Starflight The Plane That Couldn't Land.1983.CG.avi
Format : AVI
Format/Info : Audio Video Interleave
File size : 1.46 GiB
Duration : 1h 43mn
Overall bit rate : 2 024 Kbps
Writing application : VirtualDubMod |

Please Login or Register to see this Hidden Content

|| (build 2550/release)
Writing library : VirtualDubMod build 2550/release

ID : 0
Format : MPEG-4 Visual
Format profile : Advanced [email protected]
Format settings, BVOP : 1
Format settings, QPel : No
Format settings, GMC : No warppoints
Format settings, Matrix : Default (MPEG)
Codec ID : XVID
Codec ID/Hint : XviD
Duration : 1h 43mn
Bit rate : 1 823 Kbps
Width : 720 pixels
Height : 544 pixels
Display aspect ratio : 4:3
Frame rate : 25.000 fps
Color space : YUV
Chroma subsampling : 4:2:0
Bit depth : 8 bits
Scan type : Progressive
Compression mode : Lossy
Bits/(Pixel*Frame) : 0.186
Stream size : 1.32 GiB (90%)
Writing library : XviD 1.2.1 (UTC 2008-12-04)

ID : 1
Format : AC-3
Format/Info : Audio Coding 3
Mode extension : CM (complete main)
Format settings, Endianness : Big
Codec ID : 2000
Duration : 1h 43mn
Bit rate mode : Constant
Bit rate : 192 Kbps
Channel(s) : 2 channels
Channel positions : Front: L R
Sampling rate : 48.0 KHz
Bit depth : 16 bits
Compression mode : Lossy
Stream size : 142 MiB (9%)
Alignment : Split accross interleaves
Interleave, duration : 40 ms (1.00 video frame)
Interleave, preload duration : 500 ms





Hidden Content
You'll be able to see the hidden content once you thank this post.

Also tagged with one or more of these keywords: 1983, sad, znanstvena fantastika

0 user(s) are reading this topic

0 members, 0 guests, 0 anonymous users