Jump to content

Dobrodošli na Balkandownload.org
Tražite domaće knjige, exyu magazine, sinhronizirane crtane filmove, PC i ostale igre, strane i domaće filmove, dokumentarce, stranu i domaću muziku, itd. ? Ne morate tražiti dalje jer sve ćete to naći kod nas, uredno postavljeno i spremno za download. Osim toga registracijom možete sudjelovati u raznim postojećim temama na forumu, otvarati nove teme, sudjelovati u chatu i još mnogo toga. Ako već imaš otvoren račun, logiraj se ovde ,a ako želiš saznati zašto smo najbolji otvori novi račun i uverite se sami :)

La leçon particulière (1969) AKA Tender Moment

1969 francuska romantika nathalie delon pariz

  • Please log in to reply
No replies to this topic



    Advanced Member

  • VIP
  • PipPipPip
  • 717 posts
  • 2324 thanks
  • LocationGavran Mahala

La leçon particulière (1969) AKA Tender Moment




Please Login or Register to see this Hidden Content


Olivier, a seventeen-year-old high school student, is a good-looking young man, much more mature than most of his schoolmates. One day he meets Frédérique, 25, a beautiful woman who attracts him strongly. The trouble is that she has a life companion, race car driver Enrico. For the time being, Enrico is away in Detroit to test a new prototype and Frédérique is idle in Paris that is why she welcomes the young man's company. Slowly but surely, the friendship turns into an affair, for Frédérique finds she shares Olivier's feelings. But Enrico finally comes back to Paris. Will Olivier and Frédérique's love story be possible in these conditions?


La leçon particulière (1969).avi
Format                                   : AVI
Format/Info                              : Audio Video Interleave
File size                                : 631 MiB
Duration                                 : 1h 23mn
Overall bit rate                         : 1 059 Kbps
Writing library                          : This file was made by AviUtl 0.98a.

ID                                       : 0
Format                                   : MPEG-4 Visual
Format settings, BVOP                    : 1
Format settings, QPel                    : Yes
Format settings, GMC                     : 2 warppoints
Format settings, Matrix                  : Default (H.263)
Muxing mode                              : Packed bitstream
Codec ID                                 : DX50
Codec ID/Hint                            : DivX 5
Duration                                 : 1h 23mn
Bit rate                                 : 986 Kbps
Width                                    : 640 pixels
Height                                   : 360 pixels
Display aspect ratio                     : 16:9
Frame rate                               : 23.976 fps
Color space                              : YUV
Chroma subsampling                       : 4:2:0
Bit depth                                : 8 bits
Scan type                                : Progressive
Compression mode                         : Lossy
Bits/(Pixel*Frame)                       : 0.178
Stream size                              : 587 MiB (93%)
Writing library                          : DivX 5.0.2 (UTC 2002-05-16)

ID                                       : 1
Format                                   : MPEG Audio
Format version                           : Version 1
Format profile                           : Layer 3
Codec ID                                 : 55
Codec ID/Hint                            : MP3
Duration                                 : 1h 23mn
Bit rate mode                            : Constant
Bit rate                                 : 64.0 Kbps
Channel(s)                               : 1 channel
Sampling rate                            : 48.0 KHz
Compression mode                         : Lossy
Stream size                              : 38.1 MiB (6%)
Alignment                                : Split accross interleaves
Interleave, duration                     : 42 ms (1.00 video frame)
Interleave, preload duration             : 2 ms


Hardcoded Japanese Subtitles (They don't intrude too mach)








Hidden Content
You'll be able to see the hidden content once you thank this post.


English subtitle:

Please Login or Register to see this Hidden Content

Also tagged with one or more of these keywords: 1969, francuska, romantika, nathalie delon, pariz

0 user(s) are reading this topic

0 members, 0 guests, 0 anonymous users