Jump to content

Dobrodošli na Balkandownload.org
Tražite domaće knjige, exyu magazine, sinhronizirane crtane filmove, PC i ostale igre, strane i domaće filmove, dokumentarce, stranu i domaću muziku, itd. ? Ne morate tražiti dalje jer sve ćete to naći kod nas, uredno postavljeno i spremno za download. Osim toga registracijom možete sudjelovati u raznim postojećim temama na forumu, otvarati nove teme, sudjelovati u chatu i još mnogo toga. Ako već imaš otvoren račun, logiraj se ovde ,a ako želiš saznati zašto smo najbolji otvori novi račun i uverite se sami :)
Photo

Child in the Night (1990)

1990 tom skerritt triler misterija drama SAD Italija Elijah Wood JoBeth Williams Season Hubley

  • Please log in to reply
No replies to this topic

#1
LEMONZOO

LEMONZOO

    Advanced Member

  • VIP
  • PipPipPip
  • 739 posts
  • 3051 thanks
  • LocationGavran Mahala

Child in the Night (1990) TVRip

 

child_in_the_night_moo9uab.jpg

 

Please Login or Register to see this Hidden Content

 

A child psychologist, Hollis who's marriage collapsed after she learned she was barren, bonds with Luke Winfield, who witnessed his father's murder at the hands of rain-slicker wearing killer with a cargo hook. Along the way she befriends Detective Bass as he investigates a series of homicides, each with the same M.O. As Hollis gets closer to Luke she discovers some trouble family secrets ensuring she is next to be slain.

 

General
Child.In.The.Night.(1990).TVRip.avi
Format                      : AVI
Format/Info                 : Audio Video Interleave
File size                   : 1.34 GiB
Duration                    : 1h 27mn
Overall bit rate            : 2 195 Kbps
Writing application         : VirtualDubMod 1.5.10.1 (build 2439/release)
Writing library             : VirtualDub build 32706/release

Video
ID                          : 0
Format                      : MPEG-4 Visual
Format settings, BVOP       : 1
Format settings, QPel       : No
Format settings, GMC        : No warppoints
Format settings, Matrix     : Default (H.263)
Muxing mode                 : Packed bitstream
Codec ID                    : DX50
Codec ID/Hint               : DivX 5
Duration                    : 1h 27mn
Bit rate                    : 2 026 Kbps
Width                       : 640 pixels
Height                      : 480 pixels
Display aspect ratio        : 4:3
Frame rate                  : 23.976 fps
Color space                 : YUV
Chroma subsampling          : 4:2:0
Bit depth                   : 8 bits
Scan type                   : Progressive
Compression mode            : Lossy
Bits/(Pixel*Frame)          : 0.275
Stream size                 : 1.24 GiB (92%)
Writing library             : DivX 6.0.0 (UTC 2005-06-15)

Audio
ID                          : 1
Format                      : MPEG Audio
Format version              : Version 1
Format profile              : Layer 3
Mode                        : Joint stereo
Mode extension              : MS Stereo
Codec ID                    : 55
Codec ID/Hint               : MP3
Duration                    : 1h 27mn
Bit rate mode               : Constant
Bit rate                    : 160 Kbps
Channel(s)                  : 2 channels
Sampling rate               : 48.0 KHz
Compression mode            : Lossy
Stream size                 : 100.0 MiB (7%)
Alignment                   : Aligned on interleaves
Interleave, duration        : 42 ms (1.00 video frame)
Interleave, preload duratio : 504 ms
Writing library             : LAME3.96r
Encoding settings           : -m j -V 4 -q 2 -lowpass 18 -b 160

 

Child_In_The_Night_1990_TVRip_avi_000011

 

Child_In_The_Night_1990_TVRip_avi_000210

 

Child_In_The_Night_1990_TVRip_avi_002336

 

Child_In_The_Night_1990_TVRip_avi_003760

 

Child_In_The_Night_1990_TVRip_avi_004907

 

Hidden Content
You'll be able to see the hidden content once you thank this post.






Also tagged with one or more of these keywords: 1990, tom skerritt, triler, misterija, drama, SAD, Italija, Elijah Wood, JoBeth Williams, Season Hubley

0 user(s) are reading this topic

0 members, 0 guests, 0 anonymous users