Jump to content

Dobrodošli na Balkandownload.org
Tražite domaće knjige, exyu magazine, sinhronizirane crtane filmove, PC i ostale igre, strane i domaće filmove, dokumentarce, stranu i domaću muziku, itd. ? Ne morate tražiti dalje jer sve ćete to naći kod nas, uredno postavljeno i spremno za download. Osim toga registracijom možete sudjelovati u raznim postojećim temama na forumu, otvarati nove teme, sudjelovati u chatu i još mnogo toga. Ako već imaš otvoren račun, logiraj se ovde ,a ako želiš saznati zašto smo najbolji otvori novi račun i uverite se sami :)

BBC Timewatch

BBC uk

  • Please log in to reply
No replies to this topic



    Advanced Member

  • VIP
  • PipPipPip
  • 717 posts
  • 2295 thanks
  • LocationGavran Mahala

BBC Timewatch - Who Killed Ivan the Terrible? (2005)


Please Login or Register to see this Hidden Content

Criminologist David Wilson conducts an investigation into the death of Russia's first dictator, who ruled the country during the 16th century. Beginning with rumours that Ivan was strangled by enemies close to him, the historical murder mystery then takes
Wilson across Russia and on to the court of Oueen
Elizabeth I. Forensic science finally reveals the way in which Ivan was dispatched - but who was responsible?

BBC.Who Killed.Ivan.The.Terrible.divx
Format                      : DivX
Format/Info                 : Hack of AVI
File size                   : 695 MiB
Duration                    : 48mn 27s
Overall bit rate            : 2 005 Kbps

ID                          : 0
Format                      : MPEG-4 Visual
Format settings, BVOP       : 1
Format settings, QPel       : No
Format settings, GMC        : No warppoints
Format settings, Matrix     : Default (H.263)
Muxing mode                 : Packed bitstream
Codec ID                    : DX50
Codec ID/Hint               : DivX 5
Duration                    : 48mn 27s
Bit rate                    : 1 900 Kbps
Width                       : 720 pixels
Height                      : 576 pixels
Display aspect ratio        : 16:9
Frame rate                  : 25.000 fps
Standard                    : PAL
Color space                 : YUV
Chroma subsampling          : 4:2:0
Bit depth                   : 8 bits
Scan type                   : Progressive
Compression mode            : Lossy
Bits/(Pixel*Frame)          : 0.183
Stream size                 : 658 MiB (95%)
Title                       : Video
Writing library             : DivX 2151

ID                          : 1
Format                      : MPEG Audio
Format version              : Version 1
Format profile              : Layer 3
Codec ID                    : 55
Codec ID/Hint               : MP3
Duration                    : 48mn 27s
Bit rate mode               : Constant
Bit rate                    : 96.0 Kbps
Channel(s)                  : 2 channels
Sampling rate               : 48.0 KHz
Compression mode            : Lossy
Stream size                 : 33.3 MiB (5%)
Alignment                   : Split accross interleaves
Interleave, duration        : 40 ms (1.00 video frame)
Interleave, preload duratio : 500 ms
Title                       : Audio






Hidden Content
You'll be able to see the hidden content once you thank this post.


Please Login or Register to see this Hidden Content

Also tagged with one or more of these keywords: BBC, uk

0 user(s) are reading this topic

0 members, 0 guests, 0 anonymous users