Jump to content

Dobrodošli na Balkandownload.org
Tražite domaće knjige, exyu magazine, sinhronizirane crtane filmove, PC i ostale igre, strane i domaće filmove, dokumentarce, stranu i domaću muziku, itd. ? Ne morate tražiti dalje jer sve ćete to naći kod nas, uredno postavljeno i spremno za download. Osim toga registracijom možete sudjelovati u raznim postojećim temama na forumu, otvarati nove teme, sudjelovati u chatu i još mnogo toga. Ako već imaš otvoren račun, logiraj se ovde ,a ako želiš saznati zašto smo najbolji otvori novi račun i uverite se sami :)

Avant le déluge (1954) AKA Before the Deluge

1954 francuska

  • Please log in to reply
No replies to this topic



    Advanced Member

  • VIP
  • PipPipPip
  • 717 posts
  • 2295 thanks
  • LocationGavran Mahala

Avant le déluge (1954) AKA Before the Deluge


Please Login or Register to see this Hidden Content

The title of this French "reality" drama, which translates to Before the Deluge, is a play on Louis XVI's famous prognostication, "Apres moi, le deluge." Set in 1950, the film concentrates on five Parisian adolescents. Certain that the next war will herald the apocalypse, the youngster make plans to run off to a desert island and set up a new society. This, however, will require money, which is why the boys decide to pull off a "necessary" robbery. Idealism collapses in the face of cold reality, as the five youths suffer from the consequences of their actions. Avant le Deluge was one of a group of films cowritten by director Andre Cayatte and Charles Spaak which endeavored to explore the touchy social issues of the day: others in the Cayatte-Spaak canon include the euthanasia-themed Justice est Faite and the capital-punishment tract Nous sommes tous des assassins.

Languague: French
Subtitles: n/a

Avant le déluge.1954.FRENCH.Xvid.DVDrip.avi
Format                      : AVI
Format/Info                 : Audio Video Interleave
Format profile              : OpenDML
File size                   : 2.08 GiB
Duration                    : 2h 13mn
Overall bit rate            : 2 234 Kbps
Writing application         : VirtualDubMod (build 2540/release)
Writing library             : VirtualDubMod build 2540/release

ID                          : 0
Format                      : MPEG-4 Visual
Format profile              : Advanced [email protected]
Format settings, BVOP       : 1
Format settings, QPel       : No
Format settings, GMC        : No warppoints
Format settings, Matrix     : Custom
Codec ID                    : XVID
Codec ID/Hint               : XviD
Duration                    : 2h 13mn
Bit rate                    : 2 093 Kbps
Width                       : 704 pixels
Height                      : 512 pixels
Display aspect ratio        : 1.375
Frame rate                  : 25.000 fps
Color space                 : YUV
Chroma subsampling          : 4:2:0
Bit depth                   : 8 bits
Scan type                   : Progressive
Compression mode            : Lossy
Bits/(Pixel*Frame)          : 0.232
Stream size                 : 1.95 GiB (94%)
Writing library             : XviD 1.2.1 (UTC 2008-12-04)

ID                          : 1
Format                      : MPEG Audio
Format version              : Version 1
Format profile              : Layer 3
Mode                        : Joint stereo
Mode extension              : MS Stereo
Codec ID                    : 55
Codec ID/Hint               : MP3
Duration                    : 2h 13mn
Bit rate mode               : Constant
Bit rate                    : 128 Kbps
Channel(s)                  : 2 channels
Sampling rate               : 48.0 KHz
Compression mode            : Lossy
Stream size                 : 122 MiB (6%)
Alignment                   : Aligned on interleaves
Interleave, duration        : 40 ms (1.00 video frame)
Interleave, preload duratio : 504 ms
Writing library             : LAME3.90.3ŞŞŞŞŞŞŞŞŞŞ





Hidden Content
You'll be able to see the hidden content once you thank this post.

Also tagged with one or more of these keywords: 1954, francuska

0 user(s) are reading this topic

0 members, 0 guests, 0 anonymous users