Jump to content

Dobrodošli na Balkandownload.org
Tražite domaće knjige, exyu magazine, sinhronizirane crtane filmove, PC i ostale igre, strane i domaće filmove, dokumentarce, stranu i domaću muziku, itd. ? Ne morate tražiti dalje jer sve ćete to naći kod nas, uredno postavljeno i spremno za download. Osim toga registracijom možete sudjelovati u raznim postojećim temama na forumu, otvarati nove teme, sudjelovati u chatu i još mnogo toga. Ako već imaš otvoren račun, logiraj se ovde ,a ako želiš saznati zašto smo najbolji otvori novi račun i uverite se sami :)
Photo

Into Great Silence (2005) DVDRip XViD


  • Please log in to reply
No replies to this topic

#1
tonym

tonym

    Advanced Member

  • Members
  • PipPipPip
  • 135 posts
  • 3939 thanks
  • Locationtu okolo

Into Great Silence (2005)

 

1.png

 

Žanr Dokumentarac

Jezik Njemački

Titlovi(samo dvije rečenice u cjelom dokumentarcu)

 

Veličanstvena tišina naziv je trosatnog dokumentarnog filma o kartuzijancima koji je postao veliki hit u njemačkim kinima. "Kad sam nakon snimanja napustio samostan, razmišljao sam o životu koji sam živio i shvatio da je privilegij provesti nekoliko mjeseci u zajednici ljudi koji žive bez ikakvog straha", rekao je redatelj Philip Groening koji je dopuštenje za snimanje filma Die grosse stille u kartuzijanskom samostanu La Grande Chartreuse u francuskim Alpama zatražio još prije 17 godina. Stroga i postojana životna rutina 1000 godina starog reda, kojemu je cilj i želja u tišini i samoći naći i slaviti Boga, odvija se gotovo bez riječi pred očima gledatelja, dok tišinu trenutka samo povremeno dijele zvona. Redatelja je fascinirao način življenja bez nervoze i stalnog trčanja za karijerom i novcem, a ipak u neposrednom kontaktu sa stvarnim životom. Publika hrli u kina iznad svakih očekivanja na ove gotovo nijeme trosatne projekcije.

 

vlcsnap-2015-10-24-07h56.jpg

vlcsnap-2015-10-24-07h56.jpg

vlcsnap-2015-10-24-07h56.jpg

Video
ID                                       : 0
Format                                   : MPEG-4 Visual
Format profile                           : [email protected]
Format settings, BVOP                    : No
Format settings, QPel                    : No
Format settings, GMC                     : No warppoints
Format settings, Matrix                  : Default (H.263)
Codec ID                                 : XVID
Codec ID/Hint                            : XviD
Duration                                 : 1h 20mn
Bit rate                                 : 838 Kbps
Width                                    : 768 pixels
Height                                   : 432 pixels
Display aspect ratio                     : 16:9
Frame rate                               : 23.976 fps
Color space                              : YUV
Chroma subsampling                       : 4:2:0
Bit depth                                : 8 bits
Scan type                                : Progressive
Compression mode                         : Lossy
Bits/(Pixel*Frame)                       : 0.105
Stream size                              : 485 MiB (81%)
Writing library                          : XviD 1.1.2 (UTC 2006-11-01)

Audio
ID                                       : 1
Format                                   : MPEG Audio
Format version                           : Version 1
Format profile                           : Layer 3
Mode                                     : Joint stereo
Mode extension                           : MS Stereo
Codec ID                                 : 55
Codec ID/Hint                            : MP3
Duration                                 : 1h 20mn
Bit rate mode                            : Constant
Bit rate                                 : 192 Kbps
Channel(s)                               : 2 channels
Sampling rate                            : 48.0 KHz
Compression mode                         : Lossy
Stream size                              : 111 MiB (18%)
Alignment                                : Split accross interleaves
Interleave, duration                     : 42 ms (1.00 video frame)
Interleave, preload duration             : 500 ms

 

Please Login or Register to see this Hidden Content

 


 

 


"Sve izgubljeno je u mojoj svijesti, samo bez težine i gorkosti zemaljskih stvari; ja imam opet sve što izgubih, preobraženo i uljepšano - u sjećanju. I još: ja imam veliku slobodu onog koji ništa nema i mir onog koji je prežalio i konačno se rastao.''


Thanked by 1 Member:
ministry1978



0 user(s) are reading this topic

0 members, 0 guests, 0 anonymous users