Jump to content

Dobrodošli na Balkandownload.org
Tražite domaće knjige, exyu magazine, sinhronizirane crtane filmove, PC i ostale igre, strane i domaće filmove, dokumentarce, stranu i domaću muziku, itd. ? Ne morate tražiti dalje jer sve ćete to naći kod nas, uredno postavljeno i spremno za download. Osim toga registracijom možete sudjelovati u raznim postojećim temama na forumu, otvarati nove teme, sudjelovati u chatu i još mnogo toga. Ako već imaš otvoren račun, logiraj se ovde ,a ako želiš saznati zašto smo najbolji otvori novi račun i uverite se sami :)
Photo

Open Season (1974)

1974 sad

  • Please log in to reply
No replies to this topic

#1
LEMONZOO

LEMONZOO

    Advanced Member

  • VIP
  • PipPipPip
  • 739 posts
  • 3047 thanks
  • LocationGavran Mahala

Open Season (1974) Dvdrip

open_season_1974gbsby.jpg

Please Login or Register to see this Hidden Content

Three Vietnam vets have become so conditioned to violence that they have developed psychotic tendencies. They kidnap people, brutalize them, then turn them loose and hunt them like animals. However the father of one of their earlier victims is plotting a vicious revenge against them.

General
Open Season (1974) Dvdrip.avi
Format                      : AVI
Format/Info                 : Audio Video Interleave
File size                   : 1.46 GiB
Duration                    : 1h 36mn
Overall bit rate            : 2 180 Kbps
Writing application         : VirtualDubMod 1.5.4.1 (build 2178/release)
Writing library             : VirtualDubMod build 2178/release

Video
ID                          : 0
Format                      : MPEG-4 Visual
Format profile              : Advanced [email protected]
Format settings, BVOP       : No
Format settings, QPel       : No
Format settings, GMC        : No warppoints
Format settings, Matrix     : Custom
Codec ID                    : XVID
Codec ID/Hint               : XviD
Duration                    : 1h 36mn
Bit rate                    : 1 948 Kbps
Width                       : 720 pixels
Height                      : 416 pixels
Display aspect ratio        : 1.731
Frame rate                  : 25.000 fps
Color space                 : YUV
Chroma subsampling          : 4:2:0
Bit depth                   : 8 bits
Scan type                   : Progressive
Compression mode            : Lossy
Bits/(Pixel*Frame)          : 0.260
Stream size                 : 1.31 GiB (89%)
Writing library             : XviD 1.2.1 (UTC 2008-12-04)

Audio
ID                          : 1
Format                      : MPEG Audio
Format version              : Version 1
Format profile              : Layer 2
Codec ID                    : 50
Duration                    : 1h 36mn
Bit rate mode               : Constant
Bit rate                    : 224 Kbps
Channel(s)                  : 2 channels
Sampling rate               : 48.0 KHz
Compression mode            : Lossy
Stream size                 : 154 MiB (10%)
Alignment                   : Aligned on interleaves
Interleave, duration        : 80 ms (2.00 video frames)
Interleave, preload duratio : 504 ms
Language                    : English

openseason1974dvdrip.yyuvh.jpg

openseason1974dvdrip.zuupi.jpg

openseason1974dvdrip.y5ukn.jpg

openseason1974dvdrip.b0u25.jpg

Hidden Content
You'll be able to see the hidden content once you thank this post.


Thanked by 1 Member:
mandrakoid




Also tagged with one or more of these keywords: 1974, sad

0 user(s) are reading this topic

0 members, 0 guests, 0 anonymous users