Jump to content

Dobrodošli na Balkandownload.org
Tražite domaće knjige, exyu magazine, sinhronizirane crtane filmove, PC i ostale igre, strane i domaće filmove, dokumentarce, stranu i domaću muziku, itd. ? Ne morate tražiti dalje jer sve ćete to naći kod nas, uredno postavljeno i spremno za download. Osim toga registracijom možete sudjelovati u raznim postojećim temama na forumu, otvarati nove teme, sudjelovati u chatu i još mnogo toga. Ako već imaš otvoren račun, logiraj se ovde ,a ako želiš saznati zašto smo najbolji otvori novi račun i uverite se sami :)
Photo

Hadersfild (2007)


3 replies to this topic

#1
Zoran_

Zoran_

    Gold Member

  • VIP
  • PipPipPipPipPipPip
  • 5,983 posts
  • 149103 thanks

Hadersfild (2007)


Hadersfild2007.png

imdb6.jpg
 

Please Login or Register to see this Hidden Content

Raša je tridesetogodišnjak koji živi sa ocem, penizionisanim alkoholicarem, u malom gradu u Srbiji. Jedva sastavljajuci kraj sa krajem, daje privatne casove književnosti tinejdžerkama i vodi emisiju na lokalnom radiju. Njegov komšija Ivan, perspektivni džudista u mladosti, prošao je kroz seriju psihoticnih epizoda i lecenja u mentalnim institucijama, pre nego što se konacno krstio u pravoslavnoj crkvi. Rašina nova ucenica Milica je lepa, energicna, otvorena i ujedno njegova trenutna devojka. Dule vodi magacin švajcarskih slatkiša i uvrteo je sebi u glavu da je japi. Monotoniju njihovih života prekida dolazak Igora, koji vec jedanaest godina živi u Hadersfildu, u Engleskoj. Uvece se svi sastaju kod Raše, i ono što isprva izgleda kao veselo okupljanje pretvara se u emotivni uragan secanja, gorcine i potrage za smislom.


Molbe za moje linkove, šaljite na PP.

 

Zabranjeno je kopiranje mojih linkova,reupload i postavljanje na druge forume!


Thanked by 265 Members:

#2
Wolf 13

Wolf 13

    Advanced Member

  • Members
  • PipPipPip
  • 426 posts
  • 33341 thanks
Hadersfild (2007) DVDrip DD5.1 x264 by Wolf
(MKV) HQ
 
TjbNBDh.jpg
 

Please Login or Register to see this Hidden Content

 

General
Unique ID                   : 331890355405854534905788086789795288524 (0xF9AFC1E33180D06ABCE3CBF8863115CC)
Complete name               : Hadersfild (2007) DVDrip DD5.1 x264 by Wolf.mkv
Format                      : Matroska
Format version              : Version 4
File size                   : 1.18 GiB
Duration                    : 1 h 36 min
Overall bit rate            : 1 757 kb/s
Encoded date                : UTC 2019-01-28 14:03:45
Writing application         : mkvmerge v30.1.0 ('Forever And More') 64-bit
Writing library             : libebml v1.3.6 + libmatroska v1.4.9 / Lavf58.20.100
 
Video
ID                          : 1
Format                      : AVC
Format/Info                 : Advanced Video Codec
Format profile              : [email protected]
Format settings             : CABAC / 8 Ref Frames
Format settings, CABAC      : Yes
Format settings, ReFrames   : 8 frames
Codec ID                    : V_MPEG4/ISO/AVC
Duration                    : 1 h 36 min
Bit rate                    : 1 500 kb/s
Width                       : 716 pixels
Height                      : 554 pixels
Display aspect ratio        : 1.85:1
Frame rate mode             : Constant
Frame rate                  : 25.000 FPS
Color space                 : YUV
Chroma subsampling          : 4:2:0
Bit depth                   : 8 bits
Scan type                   : Progressive
Bits/(Pixel*Frame)          : 0.151
Stream size                 : 1.01 GiB (85%)
Title                       : Hadersfild (2007)
Writing library             : x264 core 157 r2935 545de2f
Encoding settings           : cabac=1 / ref=8 / deblock=1:-1:-1 / analyse=0x3:0x133 / me=umh / subme=9 / psy=1 / psy_rd=1.00:0.15 / mixed_ref=1 / me_range=16 / chroma_me=1 / trellis=2 / 8x8dct=1 / cqm=0 / deadzone=21,11 / fast_pskip=1 / chroma_qp_offset=-3 / threads=6 / lookahead_threads=1 / sliced_threads=0 / nr=0 / decimate=1 / interlaced=0 / bluray_compat=0 / constrained_intra=0 / bframes=3 / b_pyramid=2 / b_adapt=2 / b_bias=0 / direct=3 / weightb=1 / open_gop=0 / weightp=2 / keyint=250 / keyint_min=25 / scenecut=40 / intra_refresh=0 / rc_lookahead=60 / rc=2pass / mbtree=1 / bitrate=1500 / ratetol=1.0 / qcomp=0.60 / qpmin=0 / qpmax=69 / qpstep=4 / cplxblur=20.0 / qblur=0.5 / vbv_maxrate=300000 / vbv_bufsize=300000 / nal_hrd=none / filler=0 / ip_ratio=1.40 / aq=1:1.00
Language                    : Serbian
Default                     : Yes
Forced                      : No
Color range                 : Limited
Color primaries             : BT.601 PAL
Transfer characteristics    : BT.709
Matrix coefficients         : BT.601
 
Audio
ID                          : 2
Format                      : E-AC-3
Format/Info                 : Enhanced AC-3
Commercial name             : Dolby Digital Plus
Codec ID                    : A_EAC3
Duration                    : 1 h 36 min
Bit rate mode               : Constant
Bit rate                    : 256 kb/s
Channel(s)                  : 6 channels
Channel layout              : L R C LFE Ls Rs
Sampling rate               : 48.0 kHz
Frame rate                  : 31.250 FPS (1536 SPF)
Compression mode            : Lossy
Delay relative to video     : -5 ms
Stream size                 : 176 MiB (15%)
Title                       : Hadersfild (2007)
Language                    : Serbian
Service kind                : Complete Main
Default                     : Yes
Forced                      : No
 
epYscVA.png
Hidden Content
You'll be able to see the hidden content once you thank this post.
 
82apovo.png
yAImtXj.jpg

Edited by Wolf 13, 28 January 2019 - 18:07.


Thanked by 205 Members:

#3
LEMONZOO

LEMONZOO

    Bronze Member

  • VIP
  • PipPipPipPip
  • 1,082 posts
  • 18320 thanks
  • LocationGavran Mahala

Hadersfild (2007) AKA Huddersfield

3701-plakatcsc.jpg

Please Login or Register to see this Hidden Content


Raša je tridesetogodišnjak koji živi s ocem umirovljenim alkoholičarom u malom gradu u Srbiji. Jedva sastavljajući kraj s krajem, daje privatne satove književnosti tinejdžericama i vodi emisiju na lokalnom radiju. Njegov susjed Ivan, perspektivni džudist u mladosti, prošao je niz psihotičnih epizoda i liječenja u mentalnim institucijama prije nego što se konačno krstio u pravoslavnoj crkvi. Dule vodi skladište švicarskih slatkiša i utuvio je sebi u glavu da je yuppie. Monotoniju njihovih života prekida dolazak Igora koji već jedanaest godina živi u Huddersfieldu u Engleskoj. Uvečer se svi sastaju kod Raše, i ono što isprva izgleda kao veselo okupljanje pretvara se u emotivni uragan sjećanja, gorčine i potrage za smislom.

General
Complete name : /home/hd3/***/torrents/data/Hadersfild (2007).avi
Format : AVI
Format/Info : Audio Video Interleave
File size : 1.36 GiB
Duration : 1h 36mn
Overall bit rate : 2 034 Kbps
Writing application : VirtualDubMod 1.5.10.2 (build 2540/release)
Writing library : VirtualDubMod build 2540/release

Video
ID : 0
Format : MPEG-4 Visual
Format profile : Advanced [email protected]
Format settings, BVOP : 2
Format settings, QPel : Yes
Format settings, GMC : No warppoints
Format settings, Matrix : Custom
Muxing mode : Packed bitstream
Codec ID : XVID
Codec ID/Hint : XviD
Duration : 1h 36mn
Bit rate : 1 832 Kbps
Width : 720 pixels
Height : 384 pixels
Display aspect ratio : 1.85:1
Frame rate : 25.000 fps
Color space : YUV
Chroma subsampling : 4:2:0
Bit depth : 8 bits
Scan type : Progressive
Compression mode : Lossy
Bits/(Pixel*Frame) : 0.265
Stream size : 1.23 GiB (90%)
Writing library : XviD 67

Audio
ID : 1
Format : MPEG Audio
Format version : Version 1
Format profile : Layer 3
Mode : Joint stereo
Mode extension : MS Stereo
Codec ID : 55
Codec ID/Hint : MP3
Duration : 1h 36mn
Bit rate mode : Constant
Bit rate : 192 Kbps
Channel(s) : 2 channels
Sampling rate : 48.0 KHz
Compression mode : Lossy
Stream size : 132 MiB (9%)
Alignment : Aligned on interleaves
Interleave, duration : 40 ms (1.00 video frame)
Interleave, preload duration : 504 ms
Writing library : LAME3.99.5
Languague : Serbian


frame2.jpg

frame5.jpg

frame6.jpg


Hidden Content
You'll be able to see the hidden content once you thank this post.


Thanked by 98 Members:

#4
Zoran_

Zoran_

    Gold Member

  • VIP
  • PipPipPipPipPipPip
  • 5,983 posts
  • 149103 thanks
Hadersfild (2007)
 
 
Hadersfild2007.png
 
Su6Ksi6.jpg
 

Please Login or Register to see this Hidden Content

 
Raša je tridesetogodišnjak koji živi sa ocem, penizionisanim alkoholicarem, u malom gradu u Srbiji. Jedva sastavljajuci kraj sa krajem, daje privatne casove književnosti tinejdžerkama i vodi emisiju na lokalnom radiju. Njegov komšija Ivan, perspektivni džudista u mladosti, prošao je kroz seriju psihoticnih epizoda i lecenja u mentalnim institucijama, pre nego što se konacno krstio u pravoslavnoj crkvi. Rašina nova ucenica Milica je lepa, energicna, otvorena i ujedno njegova trenutna devojka. Dule vodi magacin švajcarskih slatkiša i uvrteo je sebi u glavu da je japi. Monotoniju njihovih života prekida dolazak Igora, koji vec jedanaest godina živi u Hadersfildu, u Engleskoj. Uvece se svi sastaju kod Raše, i ono što isprva izgleda kao veselo okupljanje pretvara se u emotivni uragan secanja, gorcine i potrage za smislom.
 
Hadersfild2007.avi.gif
 
Hadersfild2007.avi.jpg
 
Oets6ur.gif
 
Hadersfild (2007) DVDRip avi
 
SFYUbuP.jpg
 
Hidden Content
You'll be able to see the hidden content once you thank this post.

Molbe za moje linkove, šaljite na PP.

 

Zabranjeno je kopiranje mojih linkova,reupload i postavljanje na druge forume!


Thanked by 66 Members:
blacksad011 , alexva , hubclub , sputnik , goransokolovic.fr , Mikele Placido , jokajokajoka , 303808909 , rade.com , lestrejndz , rikee , Cvjcak , Dijana1974 , Verdeja , stringer , pzetar , Ilijaax , hpstucker , zorandju , Natalija83 , curetak , fladoje , Mister X , mciplic , Nikolatb , emcika , dacha71 , vajtaun , kljajajunior , stevaa , severing , parigroz , tea89 , JohnnyQ_1 , goran0210 , motolyzer , preshabgd , hcpunkoi , gringo74 , xnoz25 , Ozzy80 , lazanet , Pedja1983 , Ne boj se , dadisajo , mizerx , kormi17 , minja08011989 , natalija1 , goran.ulemek87 , beograd1960' , coccinella , somci , vojaalter , Milfir , Jokso , Gorolomac , zoran48 , Franci , Anki , Homss , smajjo , jumanjinz , mortification , 011gogo , Alenbeg



0 user(s) are reading this topic

0 members, 0 guests, 0 anonymous users