Jump to content

Dobrodošli na Balkandownload.org
Tražite domaće knjige, exyu magazine, sinhronizirane crtane filmove, PC i ostale igre, strane i domaće filmove, dokumentarce, stranu i domaću muziku, itd. ? Ne morate tražiti dalje jer sve ćete to naći kod nas, uredno postavljeno i spremno za download. Osim toga registracijom možete sudjelovati u raznim postojećim temama na forumu, otvarati nove teme, sudjelovati u chatu i još mnogo toga. Ako već imaš otvoren račun, logiraj se ovde ,a ako želiš saznati zašto smo najbolji otvori novi račun i uverite se sami :)
Photo

Dobro ustimani mrtvaci (2005)


2 replies to this topic

#1
Zoran_

Zoran_

    Gold Member

  • VIP
  • PipPipPipPipPipPip
  • 5,990 posts
  • 149681 thanks

Dobro ustimani mrtvaci (2005)


Dobroustimanimrtvaci2005.png

imdb6.jpg
 

Please Login or Register to see this Hidden Content

Dvojica radnika u mrtvačnici zabavljaju se kladeći se koliko će im ohladjnih mušterija pristići toga dana. Jedan mrtvac odbija suradnju.Treći film režisera Benjamina Filipovića crna je komedija čiji glavni junaci, Risto ( i Safet, ne baš atraktivan posao učine zanimljivijim okladama koliko će leševa primiti u mrtvačnici. Toga dana Risto stavlja novac na manje od četiri leša dok Safet misli da će ih biti četiri ili više.Prva 'muštrerija' je Ruždija Kučak, lokalni prevarant koji je kao humanitarnu pomoć dobio traktor. Kako su polja bila minirana pretvorio ga je u svojevrsnu lokomotivu te zarađivao za kruh prevozeći putnike. Kučak često pada u nesvjest i doživljava kliničku smrt stoga nerijetko završi u mrtvačnici iako se do sada uvijek probudio.Nedugo zatim pristižu 3 nova leša, 20godišnji arhitekt, ministrica u četrdesetima i penzioner, bivši oficir u JNA. Sve ukazuje da je ovoga puta Safet dobio okladu no Ruždija se, kao i obično budi.


Molbe za moje linkove, šaljite na PP.

 

Zabranjeno je kopiranje mojih linkova,reupload i postavljanje na druge forume!


Thanked by 61 Members:
ivoivi52 , sinafeniks , Dijana1974 , osmanavramovic , blub9999 , Bogdan2011 , joska12 , danep , jovicai , mpaliska , js1984 , pijero , Žićko Banderaš , panda7 , veky05 , beograd1960' , danijeladanijel , kvacica , milosvesic , nikola29_06 , kresomirovic , luinera , lucija2003 , draganadragana2010 , DenisBan , alencom19877 , zeljooo , marzaneti , Aida86 , sanjaradojevic , iljeva990 , amres , milovank , artcamora , Reiner , brankomeda , igor1906 , MilasMario , brankoz13 , magrga , marek_05 , boco , toma7 , Topcider , dexk67 , urs517 , patriksvejzi , matkaa , krivosic1804 , kristijan6 , duskoj , katevojtković , stefanovicmilan , seisgk , volimfilm007 , zagor 45 , dodo69 , buckobass , senad68 , dji1ya , mdragan65

#2
Wolf 13

Wolf 13

    Advanced Member

  • Members
  • PipPipPip
  • 426 posts
  • 33583 thanks
Dobro ustimani mrtvaci (2005) DVDrip AC3 5.1 x264 by Wolf
(MKV) HQ
 
S2ilcE7.jpg
 

Please Login or Register to see this Hidden Content

 

General
Unique ID                   : 94159956328136736599112960166609314923 (0x46D68C4627427AF5D9B5FE0CCB80646B)
Complete name               : Dobro ustimani mrtvaci (2005) DVDrip AC3 5.1 x264 by Wolf.mkv
Format                      : Matroska
Format version              : Version 4
File size                   : 1.11 GiB
Duration                    : 1 h 30 min
Overall bit rate            : 1 758 kb/s
Encoded date                : UTC 2019-01-11 14:56:23 / UTC 2019-01-11T11:00:37Z
Writing application         : mkvmerge v30.1.0 ('Forever And More') 64-bit
Writing library             : libebml v1.3.6 + libmatroska v1.4.9 / Lavf57.7.2
 
Video
ID                          : 1
Format                      : AVC
Format/Info                 : Advanced Video Codec
Format profile              : [email protected]
Format settings             : CABAC / 8 Ref Frames
Format settings, CABAC      : Yes
Format settings, ReFrames   : 8 frames
Codec ID                    : V_MPEG4/ISO/AVC
Duration                    : 1 h 30 min
Bit rate                    : 1 500 kb/s
Width                       : 718 pixels
Height                      : 552 pixels
Display aspect ratio        : 16:9
Original display aspect rat : 1.387
Frame rate mode             : Constant
Frame rate                  : 25.000 FPS
Color space                 : YUV
Chroma subsampling          : 4:2:0
Bit depth                   : 8 bits
Scan type                   : Progressive
Bits/(Pixel*Frame)          : 0.151
Stream size                 : 945 MiB (83%)
Title                       : Dobro ustimani mrtvaci (2005)
Writing library             : x264 core 155 r2901 7d0ff22
Encoding settings           : cabac=1 / ref=8 / deblock=1:-1:-1 / analyse=0x3:0x133 / me=umh / subme=9 / psy=1 / psy_rd=1.00:0.15 / mixed_ref=1 / me_range=16 / chroma_me=1 / trellis=2 / 8x8dct=1 / cqm=0 / deadzone=21,11 / fast_pskip=1 / chroma_qp_offset=-3 / threads=6 / lookahead_threads=1 / sliced_threads=0 / nr=0 / decimate=1 / interlaced=0 / bluray_compat=0 / constrained_intra=0 / bframes=3 / b_pyramid=2 / b_adapt=2 / b_bias=0 / direct=3 / weightb=1 / open_gop=0 / weightp=2 / keyint=250 / keyint_min=25 / scenecut=40 / intra_refresh=0 / rc_lookahead=60 / rc=2pass / mbtree=1 / bitrate=1500 / ratetol=1.0 / qcomp=0.60 / qpmin=0 / qpmax=69 / qpstep=4 / cplxblur=20.0 / qblur=0.5 / vbv_maxrate=300000 / vbv_bufsize=300000 / nal_hrd=none / filler=0 / ip_ratio=1.40 / aq=1:1.00
Language                    : Bosnian
Default                     : Yes
Forced                      : No
Color range                 : Limited
Color primaries             : BT.601 PAL
Transfer characteristics    : BT.709
Matrix coefficients         : BT.601
Statistics Tags Issue       : mkvmerge v30.1.0 ('Forever And More') 64-bit 2019-01-11 14:56:23 / mkvmerge v30.1.0 ('Forever And More') 64-bit 2019-01-11 14:56:23 / UTC 2019-01-11T11:00:37Z
FromStats_BitRate           : 1500067
FromStats_Duration          : 01:30:06.160000000
FromStats_FrameCount        : 135154
FromStats_StreamSize        : 1013700716
 
Audio
ID                          : 2
Format                      : E-AC-3
Format/Info                 : Enhanced AC-3
Commercial name             : Dolby Digital Plus
Codec ID                    : A_EAC3
Duration                    : 1 h 30 min
Bit rate mode               : Constant
Bit rate                    : 256 kb/s
Channel(s)                  : 6 channels
Channel layout              : L R C LFE Ls Rs
Sampling rate               : 48.0 kHz
Frame rate                  : 31.250 FPS (1536 SPF)
Compression mode            : Lossy
Delay relative to video     : -85 ms
Stream size                 : 165 MiB (15%)
Title                       : Dobro ustimani mrtvaci (2005)
Language                    : Bosnian
Service kind                : Complete Main
Default                     : Yes
Forced                      : No
Statistics Tags Issue       : mkvmerge v30.1.0 ('Forever And More') 64-bit 2019-01-11 14:56:23 / mkvmerge v30.1.0 ('Forever And More') 64-bit 2019-01-11 14:56:23 / UTC 2019-01-11T11:00:37Z
FromStats_BitRate           : 256000
FromStats_Duration          : 01:30:06.304000000
FromStats_FrameCount        : 168947
FromStats_StreamSize        : 173001728
 
epYscVA.png
Hidden Content
You'll be able to see the hidden content once you thank this post.
 
DvBqhzN.png
58Kxohf.jpg


Thanked by 51 Members:
medo146 , mancity , ivoivi52 , dedamiro , krbo , kccobcco , sinafeniks , Dijana1974 , chefko , smirnoff_commando , pulser , osmanavramovic , dadisajo , Najbolji13 , lilke , blub9999 , goraneo , popayko , oxidonis2008 , kecy , Bogdan2011 , novicanovica , mawerick , kivan1 , Homme , pijero , Prene , rafael13 , ciduuu , joska12 , dika973 , lika , gdesibre , MICALE , opetopet , zoki71 , zoran48 , icaleptir , Topcider , Homss , rusko , Jokso , Franci , 011gogo , anexmanex , iceman_79 , Veliki Strumf , Miki_Kiki_Riki , danep , Milfir , Zelenac1

#3
Zoran_

Zoran_

    Gold Member

  • VIP
  • PipPipPipPipPipPip
  • 5,990 posts
  • 149681 thanks
Dobro ustimani mrtvaci (2005)
 
 
Dobroustimanimrtvaci2005.png
 
Su6Ksi6.jpg
 

Please Login or Register to see this Hidden Content

 
Dvojica radnika u mrtvačnici zabavljaju se kladeći se koliko će im ohladjnih mušterija pristići toga dana. Jedan mrtvac odbija suradnju.Treći film režisera Benjamina Filipovića crna je komedija čiji glavni junaci, Risto ( i Safet, ne baš atraktivan posao učine zanimljivijim okladama koliko će leševa primiti u mrtvačnici. Toga dana Risto stavlja novac na manje od četiri leša dok Safet misli da će ih biti četiri ili više.Prva 'muštrerija' je Ruždija Kučak, lokalni prevarant koji je kao humanitarnu pomoć dobio traktor. Kako su polja bila minirana pretvorio ga je u svojevrsnu lokomotivu te zarađivao za kruh prevozeći putnike. Kučak često pada u nesvjest i doživljava kliničku smrt stoga nerijetko završi u mrtvačnici iako se do sada uvijek probudio.Nedugo zatim pristižu 3 nova leša, 20godišnji arhitekt, ministrica u četrdesetima i penzioner, bivši oficir u JNA. Sve ukazuje da je ovoga puta Safet dobio okladu no Ruždija se, kao i obično budi.
 
Dobroustimanimrtvaci2005.avi.gif
 
Dobroustimanimrtvaci2005.avi.jpg
 
Oets6ur.gif
 
Dobro ustimani mrtvaci (2005) DVDRip avi
 
SFYUbuP.jpg
 
Hidden Content
You'll be able to see the hidden content once you thank this post.

Molbe za moje linkove, šaljite na PP.

 

Zabranjeno je kopiranje mojih linkova,reupload i postavljanje na druge forume!


Thanked by 34 Members:
Jorgos , jadjonbv , baronrajo , 27bit , goransokolovic.fr , LeCroat , lilke , ivoivi52 , dedamiro , PNPN , Dijana1974 , macessatt , stodejan , NeoCoolzero , kockari , osmanavramovic , dadisajo , Najbolji13 , Attila , popayko , pedjatop , mean machine , kecy , Cocco Bill , minasica , beograd1960' , kivan1 , melman , pcbbata , dreidolin , Anki , morpheus0106 , zoran48 , Jokso



0 user(s) are reading this topic

0 members, 0 guests, 0 anonymous users