Jump to content

Dobrodošli na Balkandownload.org
Tražite domaće knjige, exyu magazine, sinhronizirane crtane filmove, PC i ostale igre, strane i domaće filmove, dokumentarce, stranu i domaću muziku, itd. ? Ne morate tražiti dalje jer sve ćete to naći kod nas, uredno postavljeno i spremno za download. Osim toga registracijom možete sudjelovati u raznim postojećim temama na forumu, otvarati nove teme, sudjelovati u chatu i još mnogo toga. Ako već imaš otvoren račun, logiraj se ovde ,a ako želiš saznati zašto smo najbolji otvori novi račun i uverite se sami :)

The Phantom Empire (1935)

1935 sad Gene Autry vestern mjuzikl znanstvena fantastika obiteljski ranč radio

  • Please log in to reply
No replies to this topic



    Advanced Member

  • VIP
  • PipPipPip
  • 717 posts
  • 2283 thanks
  • LocationGavran Mahala

The Phantom Empire (1935)


Please Login or Register to see this Hidden Content

When the ancient continent of Mu sank beneath the ocean, some of its inhabitant survived in caverns beneath the sea. Cowboy singer Gene Autry stumbles upon the civilization, now buried beneath his own Radio Ranch. The Muranians have developed technology and weaponry such as television and ray guns. Their rich supply of radium draws unscrupulous speculators from the surface. The peaceful civilization of the Muranians is corrupted by the greed from above, and it becomes Autry's task to prevent all-out war, ideally without disrupting his regular radio show.

CHAP. 1 SINGING COWBOY: Professor Beetson and his associates arrive at Gene's Radio Ranch looking for a buried city and a fortune in radium. When Gene helps them look for the secret entrance to Murania located 25,000 feet below Radio Ranch, the Muranian Queen sends her men to kill Gene.
CHAP. 2 THUNDER RIDERS: Wanting everyone off Radio Ranch so they can investigate in private, Beetson frames Gene for murder.
CHAP. 3 LIGHTNING CHAMBER: In Murania Lord Argo is planning a revolution while on the surface Gene flees from the Sheriff in a car without brakes.
CHAP. 4 PHANTOM BROADCAST: Still fleeing from the Sheriff Gene must make his radio broadcast or lose his contract and the ranch.
CHAP. 5 BENEATH THE EARTH: Switching clothes with a Muranian, Gene is taken to the underground empire where the Queen sentences him to die.
CHAP. 6 DISASTER FROM THE SKY: Gene tries to stop the radium bomb the Queen has sent to kill the riders on the surface.
CHAP. 7 FROM DEATH TO LIFE: Declared dead the Queen sends Gene to the revival chamber so she can learn the name of the traitor that previously released him.
CHAP. 8 JAWS OF JEOPARDY: Reaching the surface Gene takes Beetson's airplane but the Queen sends a ray that kills the engine and the plane crashes.
CHAP. 9: PRISONERS OF THE RAY: Frankie and Betsy are taken to Murania. Escaping their captors they throw the switch that will enable Gene to find the secret surface entrance only to be apparently electrocuted.
CHAP. 10 REBELLION: Gene tells the Queen that Argo is the traitor and learning of this, Argo starts the revolution.
CHAP. 11 QUEEN IN CHAINS: Argo takes over control Murania and sentences the Queen to death.
CHAP. 12 END OF MURANIA: Gene saves the Queen and locks Argo and his men in the room with the death ray which gets out of control. With the end of Murania imminent the Queen refuses to leave. Gene and the others reach the surface where Gene must still face the murder charge.

Format : AVI
Format/Info : Audio Video Interleave
File size : 934 MiB
Duration : 1h 52mn
Overall bit rate : 1 157 Kbps
Writing library : VirtualDub-MPEG2 build 24586/release

ID : 0
Format : MPEG-4 Visual
Format profile : Advanced [email protected]
Format settings, BVOP : 2
Format settings, QPel : No
Format settings, GMC : No warppoints
Format settings, Matrix : Default (H.263)
Muxing mode : Packed bitstream
Codec ID : XVID
Codec ID/Hint : XviD
Duration : 1h 52mn
Bit rate : 1 017 Kbps
Width : 656 pixels
Height : 480 pixels
Display aspect ratio : 4:3
Frame rate : 29.970 fps
Color space : YUV
Chroma subsampling : 4:2:0
Bit depth : 8 bits
Scan type : Progressive
Compression mode : Lossy
Bits/(Pixel*Frame) : 0.108
Stream size : 821 MiB (88%)
Writing library : XviD 1.1.2 (UTC 2006-11-01)

ID : 1
Format : MPEG Audio
Format version : Version 1
Format profile : Layer 3
Mode : Joint stereo
Mode extension : MS Stereo
Codec ID : 55
Codec ID/Hint : MP3
Duration : 1h 52mn
Bit rate mode : Constant
Bit rate : 128 Kbps
Channel(s) : 2 channels
Sampling rate : 48.0 KHz
Compression mode : Lossy
Stream size : 103 MiB (11%)
Alignment : Split accross interleaves
Interleave, duration : 33 ms (1.00 video frame)
Interleave, preload duratio : 500 ms





Hidden Content
You'll be able to see the hidden content once you thank this post.

Also tagged with one or more of these keywords: 1935, sad, Gene Autry, vestern, mjuzikl, znanstvena fantastika, obiteljski, ranč, radio

0 user(s) are reading this topic

0 members, 0 guests, 0 anonymous users