Jump to content

Dobrodošli na Balkandownload.org
Tražite domaće knjige, exyu magazine, sinhronizirane crtane filmove, PC i ostale igre, strane i domaće filmove, dokumentarce, stranu i domaću muziku, itd. ? Ne morate tražiti dalje jer sve ćete to naći kod nas, uredno postavljeno i spremno za download. Osim toga registracijom možete sudjelovati u raznim postojećim temama na forumu, otvarati nove teme, sudjelovati u chatu i još mnogo toga. Ako već imaš otvoren račun, logiraj se ovde ,a ako želiš saznati zašto smo najbolji otvori novi račun i uverite se sami :)
Photo

Deadliest Prey (2013)

2013 sad

  • Please log in to reply
No replies to this topic

#1
LEMONZOO

LEMONZOO

    Advanced Member

  • VIP
  • PipPipPip
  • 739 posts
  • 2988 thanks
  • LocationGavran Mahala

The.Deadliest.Prey.2013.BRRip.XviD.MP3-RARBG

deadliest_prey_2013pax8e.jpg

Please Login or Register to see this Hidden Content

Colonel Hogan is still alive and just getting out of prison on parole, some 28 years later. But he has only one thing in mind and that is revenge on Mike Danton. So once again, Hogan puts together a group of mercenaries, has Danton kidnapped, and the games begin. Only this time Hogan is funded by a huge Internet company in exchange for broadcasting the hunting of Danton over the Internet, worldwide.

Video
ID                                       : 0
Format                                   : MPEG-4 Visual
Format profile                           : [email protected]
Format settings, BVOP                    : No
Format settings, QPel                    : No
Format settings, GMC                     : No warppoints
Format settings, Matrix                  : Default (H.263)
Codec ID                                 : XVID
Codec ID/Hint                            : XviD
Duration                                 : 1h 20mn
Bit rate                                 : 1 595 Kbps
Width                                    : 720 pixels
Height                                   : 400 pixels
Display aspect ratio                     : 16:9
Frame rate                               : 23.976 fps
Color space                              : YUV
Chroma subsampling                       : 4:2:0
Bit depth                                : 8 bits
Scan type                                : Progressive
Compression mode                         : Lossy
Bits/(Pixel*Frame)                       : 0.231
Stream size                              : 923 MiB (88%)
Title                                    : RARBG.COM - The.Deadliest.Prey.2013.BRRip.XviD.MP3-RARBG
Writing library                          : Lavc56.60.100

Audio
ID                                       : 1
Format                                   : MPEG Audio
Format version                           : Version 1
Format profile                           : Layer 3
Mode                                     : Joint stereo
Codec ID                                 : 55
Codec ID/Hint                            : MP3
Duration                                 : 1h 20mn
Bit rate mode                            : Constant
Bit rate                                 : 192 Kbps
Channel(s)                               : 2 channels
Sampling rate                            : 48.0 KHz
Compression mode                         : Lossy
Stream size                              : 111 MiB (11%)
Alignment                                : Aligned on interleaves
Interleave, duration                     : 24 ms (0.58 video frame)
Interleave, preload duration             : 24 ms
Title                                    : RARBG.COM - The.Deadliest.Prey.2013.BRRip.XviD.MP3-RARBG
Writing library                          : LAME3.99.5

 

the.deadliest.prey.20zylyr.jpg

the.deadliest.prey.20akz8a.jpg

the.deadliest.prey.20iraj8.jpg

the.deadliest.prey.200jzcc.jpg

Hidden Content
You'll be able to see the hidden content once you thank this post.


Thanked by 2 Members:
Svilesis , kasniporasni




Also tagged with one or more of these keywords: 2013, sad

0 user(s) are reading this topic

0 members, 0 guests, 0 anonymous users