Jump to content

Dobrodošli na Balkandownload.org
Tražite domaće knjige, exyu magazine, sinhronizirane crtane filmove, PC i ostale igre, strane i domaće filmove, dokumentarce, stranu i domaću muziku, itd. ? Ne morate tražiti dalje jer sve ćete to naći kod nas, uredno postavljeno i spremno za download. Osim toga registracijom možete sudjelovati u raznim postojećim temama na forumu, otvarati nove teme, sudjelovati u chatu i još mnogo toga. Ako već imaš otvoren račun, logiraj se ovde ,a ako želiš saznati zašto smo najbolji otvori novi račun i uverite se sami :)
Photo

Lucky People Center International (1998)

- - - - - 1998 svedska dokumentarni glazba ples

No replies to this topic

#1
LEMONZOO

LEMONZOO

    Advanced Member

  • VIP
  • PipPipPip
  • 956 posts
  • 11612 thanks
  • LocationGavran Mahala

Lucky People Center International (1998)

 

lucky_people_center_i9xq8f.jpg

 

Please Login or Register to see this Hidden Content

 

Stockholm-based multimedia artists Johan Soderberg and Erik Pauser work under the umbrella name "Lucky People Center." Together they wrote, directed and edited this flash-cut Swedish documentary which has no single narrative thread and uses a pulsing techno beat behind an unspooling montage of images, conversations, rants, interviews.
L.P.C.I. takes us on a journey around the world,navigating by means of people's inner life.
The use of music and rhythm and the pulsating form of the film are reminiscent of the aesthetic tools of music videos, and provide a fresh approach to documentary filming.
Filmed over several years in different corners of the world with Russian, English, Japanese and other dialogue,the film team were looking for people and ways of living reflecting the world as it approaches the year 2000.
The people we meet open different doors to belief and life-affirming vigour, and embody different stances in a world characterised by unrelenting change.
Dreams, a sense of quest and critical thinking are seen to be matters of concern for all life on earth.
We encounter voodoo powers, the investigative methods of a brain research scientist, Buddhism's view of death, a former porn actress and her thoughts on pleasure, a banker and his ecstatic needs, and much more.
Highlights include the man who sings with gibbons (Chand) and concludes that “Man must dance – we are not fully human unless we sing and dance”, and the Maori dancers who chant about the evils of the credit card.

 

General
Lucky People Center International (1998) [Xvid DVD Rip].avi
Format : AVI
Format/Info : Audio Video Interleave
File size : 1.37 GiB
Duration : 1h 17mn
Overall bit rate mode : Variable
Overall bit rate : 2 525 Kbps
Writing application : VirtualDubMod 1.5.4.1 (build 2178/release)
Writing library : VirtualDubMod build 2178/release

Video
ID : 0
Format : MPEG-4 Visual
Format profile : Advanced [email protected]
Format settings, BVOP : 1
Format settings, QPel : No
Format settings, GMC : No warppoints
Format settings, Matrix : Custom
Codec ID : XVID
Codec ID/Hint : XviD
Duration : 1h 17mn
Bit rate : 2 398 Kbps
Width : 720 pixels
Height : 448 pixels
Display aspect ratio : 16:10
Frame rate : 25.000 fps
Color space : YUV
Chroma subsampling : 4:2:0
Bit depth : 8 bits
Scan type : Progressive
Compression mode : Lossy
Bits/(Pixel*Frame) : 0.297
Stream size : 1.30 GiB (95%)
Writing library : XviD 1.2.1 (UTC 2008-12-04)

Audio
ID : 1
Format : MPEG Audio
Format version : Version 1
Format profile : Layer 3
Mode : Joint stereo
Codec ID : 55
Codec ID/Hint : MP3
Duration : 1h 17mn
Bit rate mode : Variable
Bit rate : 114 Kbps
Nominal bit rate : 128 Kbps
Channel(s) : 2 channels
Sampling rate : 48.0 KHz
Compression mode : Lossy
Stream size : 63.1 MiB (5%)
Alignment : Aligned on interleaves
Interleave, duration : 24 ms (0.60 video frame)
Interleave, preload duratio : 547 ms
Writing library : LAME3.98r
Encoding settings : -m j -V 4 -q 2 -lowpass 17 --abr 128

luckypeoplecenterintehaqjd.jpg

 

luckypeoplecenterinter1r4g.jpg

 

luckypeoplecenterinteupr55.jpg

 

luckypeoplecenterinteiqpth.jpg

Hidden Content
You'll be able to see the hidden content once you thank this post.

Prijevod:

Please Login or Register to see this Hidden Content



Thanked by 6 Members:
tester021ns , danijelns , acardenaspacheco , petar61 , atilaF , sholaja




Also tagged with one or more of these keywords: 1998, svedska, dokumentarni, glazba, ples

0 user(s) are reading this topic

0 members, 0 guests, 0 anonymous users