Jump to content

Dobrodošli na Balkandownload.org
Tražite domaće knjige, exyu magazine, sinhronizirane crtane filmove, PC i ostale igre, strane i domaće filmove, dokumentarce, stranu i domaću muziku, itd. ? Ne morate tražiti dalje jer sve ćete to naći kod nas, uredno postavljeno i spremno za download. Osim toga registracijom možete sudjelovati u raznim postojećim temama na forumu, otvarati nove teme, sudjelovati u chatu i još mnogo toga. Ako već imaš otvoren račun, logiraj se ovde ,a ako želiš saznati zašto smo najbolji otvori novi račun i uverite se sami :)
Photo

Nafaka (2006)


2 replies to this topic

#1
Zoran_

Zoran_

    Gold Member

  • VIP
  • PipPipPipPipPipPip
  • 5,984 posts
  • 149244 thanks

Nafaka (2006)


Nafaka20062..png

imdb6.jpg
 

Please Login or Register to see this Hidden Content

Ahmed i Lana, Crveno Oko i Jennet Hugh, Sado i Saba, Šahbej, Beba, Nemanja, Meli, Marks, Matan, Biber, Jimm i Nicollo… cine galeriju likova koje pratimo kroz ratno i poratno vrijeme. Živeci u sarajevskoj mahali, svi na razlicite nacine preživljavaju rat i traumaticno postratno razdoblje. Ovo je prica o njihovim životima, tragedijama, osobnim strastima i dramama, ali i prica o solidarnosti i vjeri u slobodu i sretniji život. Film je redateljeva posveta preživjelim gradjanima opsjednutog grada koji vjeruju u život i 'cudo u Sarajevu'.


Molbe za moje linkove, šaljite na PP.

 

Zabranjeno je kopiranje mojih linkova,reupload i postavljanje na druge forume!


Thanked by 94 Members:

#2
Zoran_

Zoran_

    Gold Member

  • VIP
  • PipPipPipPipPipPip
  • 5,984 posts
  • 149244 thanks
Nafaka (2006)
 
 
Nafaka20062..png
 
Su6Ksi6.jpg
 

Please Login or Register to see this Hidden Content

 
Ahmed i Lana, Crveno Oko i Jennet Hugh, Sado i Saba, Šahbej, Beba, Nemanja, Meli, Marks, Matan, Biber, Jimm i Nicollo… cine galeriju likova koje pratimo kroz ratno i poratno vrijeme. Živeci u sarajevskoj mahali, svi na razlicite nacine preživljavaju rat i traumaticno postratno razdoblje. Ovo je prica o njihovim životima, tragedijama, osobnim strastima i dramama, ali i prica o solidarnosti i vjeri u slobodu i sretniji život. Film je redateljeva posveta preživjelim gradjanima opsjednutog grada koji vjeruju u život i 'cudo u Sarajevu'.
 
Nafaka2006.avi.gif
 
Nafaka2006.avi.jpg
 
Oets6ur.gif
 
Nafaka (2006) DVDRip.XviD.avi
 
SFYUbuP.jpg
 
Hidden Content
You'll be able to see the hidden content once you thank this post.

Molbe za moje linkove, šaljite na PP.

 

Zabranjeno je kopiranje mojih linkova,reupload i postavljanje na druge forume!


Thanked by 32 Members:
Pera34 , Johnn , VEIS77 , danthe88 , goransokolovic.fr , lilke , vlado-built , Danko1977 , mciplic , slayer87 , chefko , delare2222 , dejodr , Ne boj se , Cocco Bill , djapekotez , toby007 , zok , Ivan2010 , janko moravek , MegiLara1 , mesele , zoran48 , Jokso , rusko , kockari , beograd1960' , miki-maus23 , Milfir , Karamazov , Alamo74 , zorandju

#3
Wolf 13

Wolf 13

    Advanced Member

  • Members
  • PipPipPip
  • 426 posts
  • 33399 thanks
Nafaka (2006) DVDrip DD5.1 x264 by Wolf
(MKV)
 
oBlf58M.jpg
 

Please Login or Register to see this Hidden Content

 

General
Unique ID                   : 126262068363951527348752260176168783846 (0x5EFD3098B6F1AE6498216CA4E9868FE6)
Complete name               : Nafaka (2006) DVDrip DD5.1 x264 by Wolf.mkv
Format                      : Matroska
Format version              : Version 4
File size                   : 1.63 GiB
Duration                    : 1 h 50 min
Overall bit rate            : 2 114 kb/s
Encoded date                : UTC 2019-02-22 17:23:27
Writing application         : mkvmerge v31.0.0 ('Dolores In A Shoestand') 64-bit
Writing library             : libebml v1.3.6 + libmatroska v1.4.9 / Lavf58.20.100
 
Video
ID                          : 1
Format                      : AVC
Format/Info                 : Advanced Video Codec
Format profile              : [email protected]
Format settings             : CABAC / 16 Ref Frames
Format settings, CABAC      : Yes
Format settings, ReFrames   : 16 frames
Codec ID                    : V_MPEG4/ISO/AVC
Duration                    : 1 h 50 min
Bit rate                    : 1 600 kb/s
Width                       : 720 pixels
Height                      : 576 pixels
Display aspect ratio        : 16:9
Frame rate mode             : Constant
Frame rate                  : 25.000 FPS
Standard                    : PAL
Color space                 : YUV
Chroma subsampling          : 4:2:0
Bit depth                   : 8 bits
Scan type                   : Progressive
Bits/(Pixel*Frame)          : 0.154
Stream size                 : 1.23 GiB (76%)
Title                       : Nafaka (2006)
Writing library             : x264 core 157 r2935 545de2f
Encoding settings           : cabac=1 / ref=16 / deblock=1:-1:-1 / analyse=0x3:0x133 / me=umh / subme=10 / psy=1 / psy_rd=1.00:0.15 / mixed_ref=1 / me_range=24 / chroma_me=1 / trellis=2 / 8x8dct=1 / cqm=0 / deadzone=21,11 / fast_pskip=1 / chroma_qp_offset=-3 / threads=6 / lookahead_threads=1 / sliced_threads=0 / nr=0 / decimate=1 / interlaced=0 / bluray_compat=0 / constrained_intra=0 / bframes=8 / b_pyramid=2 / b_adapt=2 / b_bias=0 / direct=3 / weightb=1 / open_gop=0 / weightp=2 / keyint=250 / keyint_min=25 / scenecut=40 / intra_refresh=0 / rc_lookahead=60 / rc=2pass / mbtree=1 / bitrate=1600 / ratetol=1.0 / qcomp=0.60 / qpmin=0 / qpmax=69 / qpstep=4 / cplxblur=20.0 / qblur=0.5 / vbv_maxrate=300000 / vbv_bufsize=300000 / nal_hrd=none / filler=0 / ip_ratio=1.40 / aq=1:1.00
Language                    : Bosnian
Default                     : Yes
Forced                      : No
Color range                 : Limited
Color primaries             : BT.601 PAL
Transfer characteristics    : BT.709
Matrix coefficients         : BT.601
 
Audio #1
ID                          : 2
Format                      : AC-3
Format/Info                 : Audio Coding 3
Commercial name             : Dolby Digital
Codec ID                    : A_AC3
Duration                    : 1 h 50 min
Bit rate mode               : Constant
Bit rate                    : 256 kb/s
Channel(s)                  : 2 channels
Channel layout              : L R
Sampling rate               : 48.0 kHz
Frame rate                  : 31.250 FPS (1536 SPF)
Bit depth                   : 16 bits
Compression mode            : Lossy
Delay relative to video     : -85 ms
Stream size                 : 202 MiB (12%)
Title                       : Stereo
Service kind                : Complete Main
Default                     : No
Forced                      : No
 
Audio #2
ID                          : 3
Format                      : E-AC-3
Format/Info                 : Enhanced AC-3
Commercial name             : Dolby Digital Plus
Codec ID                    : A_EAC3
Duration                    : 1 h 50 min
Bit rate mode               : Constant
Bit rate                    : 256 kb/s
Channel(s)                  : 6 channels
Channel layout              : L R C LFE Ls Rs
Sampling rate               : 48.0 kHz
Frame rate                  : 31.250 FPS (1536 SPF)
Compression mode            : Lossy
Delay relative to video     : -85 ms
Stream size                 : 202 MiB (12%)
Title                       : Nafaka (2006)
Language                    : Bosnian
Service kind                : Complete Main
Default                     : Yes
Forced                      : No
 
Text
ID                          : 4
Format                      : UTF-8
Codec ID                    : S_TEXT/UTF8
Codec ID/Info               : UTF-8 Plain Text
Duration                    : 1 h 43 min
Bit rate                    : 8 b/s
Count of elements           : 155
Stream size                 : 6.56 KiB (0%)
Title                       : NAFAKA
Language                    : Bosnian
Default                     : Yes
Forced                      : No
 
epYscVA.png
Hidden Content
You'll be able to see the hidden content once you thank this post.
 
gaFYhqk.png
vZZVm8r.jpg


Thanked by 28 Members:
Pera34 , VEIS77 , keops87 , ismail , dupin , vlado-built , opetopet , tombraider , chefko , fritz200300 , zlo , dejan19691969 , Prospector , novicanovica , rial.basic , visnjavisnja , Krckalo235 , MegiLara1 , mesele , Zelenac1 , icaleptir , akiro , goraneo , Jokso , mawerick , mirko_cilicax , Biotloneta , beograd1960'



0 user(s) are reading this topic

0 members, 0 guests, 0 anonymous users