Jump to content

Dobrodošli na Balkandownload.org
Tražite domaće knjige, exyu magazine, sinhronizirane crtane filmove, PC i ostale igre, strane i domaće filmove, dokumentarce, stranu i domaću muziku, itd. ? Ne morate tražiti dalje jer sve ćete to naći kod nas, uredno postavljeno i spremno za download. Osim toga registracijom možete sudjelovati u raznim postojećim temama na forumu, otvarati nove teme, sudjelovati u chatu i još mnogo toga. Ako već imaš otvoren račun, logiraj se ovde ,a ako želiš saznati zašto smo najbolji otvori novi račun i uverite se sami :)
Photo

Broadway (1929)

1929 sad mjuzikl

  • Please log in to reply
No replies to this topic

#1
LEMONZOO

LEMONZOO

    Advanced Member

  • VIP
  • PipPipPip
  • 737 posts
  • 2906 thanks
  • LocationGavran Mahala

Broadway.1929.720p.BRRip.x264-x0r

broadway.1929.720p.br5fuh4.jpg

Please Login or Register to see this Hidden Content

Nick (Paul Porcasi), who runs the Paradise Night Club, is murdered by Steve (Robert Ellis), a bootlegger. Billie Moore (Merna Kennedy), a hoofer at the club, witnesses the killing but stays mum about the dirty business until she finds out Steve's next target is Roy (Glenn Tryon), her dancing partner. Billie is determined to tell her story to the police before Roy winds up dead, but Steve isn't about to let that happen and kidnaps her. No synopsis of this film is complete without a mention of the then-remarkable camera crane, which director Paul Fejos had designed specifically for use on Broadway, allowing unusually fluid movement and access to nearly every conceivable angle.

General
Broadway.1929.720p.BRRip.x264-x0r.mkv
Format                      : Matroska
Format version              : Version 2
File size                   : 1.54 GiB
Duration                    : 1h 44mn
Overall bit rate            : 2 114 Kbps
Movie name                  : Broadway.1929.720p.BRRip.x264-x0r
Encoded date                : UTC 2012-09-06 11:20:19
Writing application         : mkvmerge v2.9.7 ('Tenderness') built on Jul  5 2009 13:26:28
Writing library             : libebml v0.7.8 + libmatroska v0.8.1

Video
ID                          : 1
Format                      : AVC
Format/Info                 : Advanced Video Codec
Format profile              : [email protected]
Format settings, CABAC      : Yes
Format settings, ReFrames   : 8 frames
Codec ID                    : V_MPEG4/ISO/AVC
Duration                    : 1h 44mn
Bit rate                    : 1 984 Kbps
Width                       : 864 pixels
Height                      : 720 pixels
Display aspect ratio        : 1.200
Frame rate mode             : Constant
Frame rate                  : 23.976 fps
Color space                 : YUV
Chroma subsampling          : 4:2:0
Bit depth                   : 8 bits
Scan type                   : Progressive
Bits/(Pixel*Frame)          : 0.133
Stream size                 : 1.42 GiB (92%)
Writing library             : x264 core 120
Encoding settings           : cabac=1 / ref=8 / deblock=1:-2:-2 / analyse=0x3:0x113 / me=umh / subme=9 / psy=1 / psy_rd=1.00:0.25 / mixed_ref=1 / me_range=48 / chroma_me=1 / trellis=1 / 8x8dct=1 / cqm=0 / deadzone=6,6 / fast_pskip=0 / chroma_qp_offset=-4 / threads=6 / sliced_threads=0 / nr=0 / decimate=0 / interlaced=0 / bluray_compat=0 / constrained_intra=0 / bframes=4 / b_pyramid=2 / b_adapt=2 / b_bias=0 / direct=3 / weightb=1 / open_gop=0 / weightp=1 / keyint=240 / keyint_min=24 / scenecut=40 / intra_refresh=0 / rc_lookahead=120 / rc=2pass / mbtree=1 / bitrate=1984 / ratetol=1.0 / qcomp=0.80 / qpmin=3 / qpmax=69 / qpstep=4 / cplxblur=20.0 / qblur=0.5 / ip_ratio=1.10 / aq=1:1.00
Language                    : English
Default                     : Yes
Forced                      : No
Color range                 : Limited
Color primaries             : BT.709
Transfer characteristics    : BT.709
Matrix coefficients         : BT.709

Audio
ID                          : 2
Format                      : AC-3
Format/Info                 : Audio Coding 3
Mode extension              : CM (complete main)
Format settings, Endianness : Big
Codec ID                    : A_AC3
Duration                    : 1h 44mn
Bit rate mode               : Constant
Bit rate                    : 128 Kbps
Channel(s)                  : 1 channel
Channel positions           : Front: C
Sampling rate               : 48.0 KHz
Compression mode            : Lossy
Stream size                 : 95.6 MiB (6%)
Language                    : English
Default                     : Yes
Forced                      : No

broadway.1929.720p.briwrid.jpg

broadway.1929.720p.brghqrt.jpg

broadway.1929.720p.brbsrhh.jpg

broadway.1929.720p.brdjo13.jpg

Hidden Content
You'll be able to see the hidden content once you thank this post.






Also tagged with one or more of these keywords: 1929, sad, mjuzikl

0 user(s) are reading this topic

0 members, 0 guests, 0 anonymous users