Jump to content

Dobrodošli na Balkandownload.org
Tražite domaće knjige, exyu magazine, sinhronizirane crtane filmove, PC i ostale igre, strane i domaće filmove, dokumentarce, stranu i domaću muziku, itd. ? Ne morate tražiti dalje jer sve ćete to naći kod nas, uredno postavljeno i spremno za download. Osim toga registracijom možete sudjelovati u raznim postojećim temama na forumu, otvarati nove teme, sudjelovati u chatu i još mnogo toga. Ako već imaš otvoren račun, logiraj se ovde ,a ako želiš saznati zašto smo najbolji otvori novi račun i uverite se sami :)
Photo

The Lady in Number 6: Music Saved My Life (2013)

- - - - - 2013 sad kanada holokaust klavir glazba

No replies to this topic

#1
LEMONZOO

LEMONZOO

    Advanced Member

  • VIP
  • PipPipPip
  • 956 posts
  • 11402 thanks
  • LocationGavran Mahala

The.Lady.In.Number.6.x264.AAC.MVGroup.Forum

the_lady_in_number_6_r1s5d.jpg


Please Login or Register to see this Hidden Content

Please Login or Register to see this Hidden Content

The Lady In Number 6 is one of the most inspirational and uplifting stories of the year. 109 year old, Alice Herz Sommer, the world's oldest pianist and Holocaust survivor shares her story on how to achieve a long and happy life. She discussed the importance of music, laughter and how to have an optimistic outlook on life.


General
Complete name               : The.Lady.In.Number.6.x264.AAC.MVGroup.Forum.mp4
Format                      : MPEG-4
Format profile              : Base Media / Version 2
Codec ID                    : mp42
File size                   : 366 MiB
Duration                    : 38mn 15s
Overall bit rate mode       : Variable
Overall bit rate            : 1 339 Kbps
Encoded date                : UTC 2014-11-04 05:18:00
Tagged date                 : UTC 2014-11-04 06:58:37
Writing application         : HandBrake 0.9.9 2013052900

Video
ID                          : 1
Format                      : AVC
Format/Info                 : Advanced Video Codec
Format profile              : [email protected]
Format settings, CABAC      : Yes
Format settings, ReFrames   : 16 frames
Codec ID                    : avc1
Codec ID/Info               : Advanced Video Coding
Duration                    : 38mn 15s
Bit rate                    : 1 200 Kbps
Width                       : 720 pixels
Height                      : 460 pixels
Display aspect ratio        : 1.85:1
Frame rate mode             : Variable
Frame rate                  : 23.976 fps
Minimum frame rate          : 23.974 fps
Maximum frame rate          : 23.981 fps
Color space                 : YUV
Chroma subsampling          : 4:2:0
Bit depth                   : 8 bits
Scan type                   : Progressive
Bits/(Pixel*Frame)          : 0.151
Stream size                 : 328 MiB (90%)
Writing library             : x264 core 130 r2273 b3065e6
Encoding settings           : cabac=1 / ref=16 / deblock=1:0:0 / analyse=0x3:0x133 / me=umh / subme=10 / psy=1 / psy_rd=1.00:0.00 / mixed_ref=1 / me_range=24 / chroma_me=1 / trellis=2 / 8x8dct=1 / cqm=0 / deadzone=21,11 / fast_pskip=1 / chroma_qp_offset=-2 / threads=6 / lookahead_threads=1 / sliced_threads=0 / nr=0 / decimate=1 / interlaced=0 / bluray_compat=0 / constrained_intra=0 / bframes=8 / b_pyramid=2 / b_adapt=2 / b_bias=0 / direct=3 / weightb=1 / open_gop=0 / weightp=2 / keyint=240 / keyint_min=24 / scenecut=40 / intra_refresh=0 / rc_lookahead=60 / rc=2pass / mbtree=1 / bitrate=1200 / ratetol=1.0 / qcomp=0.60 / qpmin=0 / qpmax=69 / qpstep=4 / cplxblur=20.0 / qblur=0.5 / ip_ratio=1.40 / aq=1:1.00
Encoded date                : UTC 2014-11-04 05:18:00
Tagged date                 : UTC 2014-11-04 06:58:37
Color primaries             : BT.601 NTSC
Transfer characteristics    : BT.709
Matrix coefficients         : BT.601
Color range                 : Limited

Audio
ID                          : 2
Format                      : AAC
Format/Info                 : Advanced Audio Codec
Format profile              : LC
Codec ID                    : 40
Duration                    : 38mn 15s
Bit rate mode               : Variable
Bit rate                    : 135 Kbps
Maximum bit rate            : 140 Kbps
Channel(s)                  : 2 channels
Channel positions           : Front: L R
Sampling rate               : 48.0 KHz
Compression mode            : Lossy
Stream size                 : 37.0 MiB (10%)
Title                       : Stereo
Encoded date                : UTC 2014-11-04 05:18:00
Tagged date                 : UTC 2014-11-04 06:58:37


the.lady.in.number.6.6vs8n.jpg

the.lady.in.number.6.insp9.jpg

the.lady.in.number.6.2zsm2.jpg

the.lady.in.number.6.x8sr8.jpg

Hidden Content
You'll be able to see the hidden content once you thank this post.

Prijevod:

Please Login or Register to see this Hidden Content



Thanked by 4 Members:
danijelns , bozovaricak , jessamina55 , Savad




Also tagged with one or more of these keywords: 2013, sad, kanada, holokaust, klavir, glazba

0 user(s) are reading this topic

0 members, 0 guests, 0 anonymous users