Jump to content

Dobrodošli na Balkandownload.org
Tražite domaće knjige, exyu magazine, sinhronizirane crtane filmove, PC i ostale igre, strane i domaće filmove, dokumentarce, stranu i domaću muziku, itd. ? Ne morate tražiti dalje jer sve ćete to naći kod nas, uredno postavljeno i spremno za download. Osim toga registracijom možete sudjelovati u raznim postojećim temama na forumu, otvarati nove teme, sudjelovati u chatu i još mnogo toga. Ako već imaš otvoren račun, logiraj se ovde ,a ako želiš saznati zašto smo najbolji otvori novi račun i uverite se sami :)
Photo

Nightmare on the 13th Floor (1990)

1990 horor

  • Please log in to reply
No replies to this topic

#1
LEMONZOO

LEMONZOO

    Advanced Member

  • VIP
  • PipPipPip
  • 739 posts
  • 3053 thanks
  • LocationGavran Mahala

Nightmare on the 13th Floor.1990.VHSrip.Xvid-CG

acnkoz3nhfpwywwd7dqaru0eus.jpg

Please Login or Register to see this Hidden Content

Elaine Kalisher is a journalist who is writing an article on the Wessex Hotel. The staff say that the hotel doesn't have a 13th floor. Suddenly people dissapear and a Satanic group starts to send people up to the 13th floor where there is a maniac killer.


General
Complete name               : Nightmare on the 13th Floor.1990.VHSrip.Xvid-CG.avi
Format                      : AVI
Format/Info                 : Audio Video Interleave
File size                   : 1.05 GiB
Duration                    : 1h 25mn
Overall bit rate            : 1 766 Kbps
Writing application         : VirtualDubMod 1.5.10.3 |

Please Login or Register to see this Hidden Content

|| (build 2550/release)
Writing library             : VirtualDubMod build 2550/release

Video
ID                          : 0
Format                      : MPEG-4 Visual
Format profile              : Advanced [email protected]
Format settings, BVOP       : 2
Format settings, QPel       : No
Format settings, GMC        : No warppoints
Format settings, Matrix     : Default (H.263)
Muxing mode                 : Packed bitstream
Codec ID                    : XVID
Codec ID/Hint               : XviD
Duration                    : 1h 25mn
Bit rate                    : 1 498 Kbps
Width                       : 640 pixels
Height                      : 480 pixels
Display aspect ratio        : 3:2
Original display aspect rat : 4:3
Frame rate                  : 29.970 fps
Color space                 : YUV
Chroma subsampling          : 4:2:0
Bit depth                   : 8 bits
Scan type                   : Progressive
Compression mode            : Lossy
Bits/(Pixel*Frame)          : 0.163
Stream size                 : 914 MiB (85%)
Writing library             : XviD 1.2.1 (UTC 2008-12-04)

Audio
ID                          : 1
Format                      : AC-3
Format/Info                 : Audio Coding 3
Mode extension              : CM (complete main)
Format settings, Endianness : Big
Codec ID                    : 2000
Duration                    : 1h 25mn
Bit rate mode               : Constant
Bit rate                    : 256 Kbps
Channel(s)                  : 2 channels
Channel positions           : Front: L R
Sampling rate               : 48.0 KHz
Compression mode            : Lossy
Delay relative to video     : 350ms
Stream size                 : 156 MiB (14%)
Alignment                   : Split accross interleaves
Interleave, duration        : 33 ms (1.00 video frame)
Interleave, preload duratio : 500 ms

nightmareonthe13thflobosyd.jpg

nightmareonthe13thflouwsww.jpg

nightmareonthe13thflo1es4j.jpg

nightmareonthe13thflobbs9p.jpg

Hidden Content
You'll be able to see the hidden content once you thank this post.






Also tagged with one or more of these keywords: 1990, horor

0 user(s) are reading this topic

0 members, 0 guests, 0 anonymous users