Jump to content

Dobrodošli na Balkandownload.org
Tražite domaće knjige, exyu magazine, sinhronizirane crtane filmove, PC i ostale igre, strane i domaće filmove, dokumentarce, stranu i domaću muziku, itd. ? Ne morate tražiti dalje jer sve ćete to naći kod nas, uredno postavljeno i spremno za download. Osim toga registracijom možete sudjelovati u raznim postojećim temama na forumu, otvarati nove teme, sudjelovati u chatu i još mnogo toga. Ako već imaš otvoren račun, logiraj se ovde ,a ako želiš saznati zašto smo najbolji otvori novi račun i uverite se sami :)
Photo

Night Owl (1993)

1993 horor john leguizamo

  • Please log in to reply
No replies to this topic

#1
LEMONZOO

LEMONZOO

    Advanced Member

  • VIP
  • PipPipPip
  • 736 posts
  • 2891 thanks
  • LocationGavran Mahala

Night Owl (1993)

nightowl1993zyskk.jpg

Please Login or Register to see this Hidden Content

A vampire in the East Village picks up women, and while having sex with them kills them and drinks their blood. Meanwhile, a young Puerto Rican guy begins searching the Village for his sister, who is one of the vampire's victims.

General
Complete name : Nite Owl (1993) John Leguizamo.avi
Format : AVI
Format/Info : Audio Video Interleave
File size : 699 MiB
Duration : 1h 16mn
Overall bit rate : 1 279 Kbps
Writing application : VirtualDubMod 1.5.4.1 (build 2117/release)
Writing library : VirtualDubMod build 2117/release

Video
ID : 0
Format : MPEG-4 Visual
Format profile : Advanced [email protected]
Format settings, BVOP : 1
Format settings, QPel : No
Format settings, GMC : No warppoints
Format settings, Matrix : Default (MPEG)
Muxing mode : Packed bitstream
Codec ID : XVID
Codec ID/Hint : XviD
Duration : 1h 16mn
Bit rate : 1 142 Kbps
Width : 640 pixels
Height : 464 pixels
Display aspect ratio : 1.379
Frame rate : 23.976 fps
Color space : YUV
Chroma subsampling : 4:2:0
Bit depth : 8 bits
Scan type : Progressive
Compression mode : Lossy
Bits/(Pixel*Frame) : 0.160
Stream size : 624 MiB (89%)
Writing library : XviD 1.0.2 (UTC 2004-08-29)

Audio
ID : 1
Format : MPEG Audio
Format version : Version 1
Format profile : Layer 3
Mode : Joint stereo
Mode extension : MS Stereo
Codec ID : 55
Codec ID/Hint : MP3
Duration : 1h 16mn
Bit rate mode : Constant
Bit rate : 128 Kbps
Channel(s) : 2 channels
Sampling rate : 48.0 KHz
Compression mode : Lossy
Stream size : 70.0 MiB (10%)
Alignment : Aligned on interleaves
Interleave, duration : 42 ms (1.00 video frame)
Interleave, preload duratio : 504 ms
Writing library : LAME3.96r
Encoding settings : -m j -V 4 -q 2 -lowpass 17.5 -b 128

niteowl.avi_000023462q9sig.jpg

niteowl.avi_000844510izsdy.jpg

niteowl.avi_002515149rwszk.jpg

niteowl.avi_003903045w0su6.jpg

Hidden Content
You'll be able to see the hidden content once you thank this post.






Also tagged with one or more of these keywords: 1993, horor, john leguizamo

0 user(s) are reading this topic

0 members, 0 guests, 0 anonymous users