Jump to content

Dobrodošli na Balkandownload.org
Tražite domaće knjige, exyu magazine, sinhronizirane crtane filmove, PC i ostale igre, strane i domaće filmove, dokumentarce, stranu i domaću muziku, itd. ? Ne morate tražiti dalje jer sve ćete to naći kod nas, uredno postavljeno i spremno za download. Osim toga registracijom možete sudjelovati u raznim postojećim temama na forumu, otvarati nove teme, sudjelovati u chatu i još mnogo toga. Ako već imaš otvoren račun, logiraj se ovde ,a ako želiš saznati zašto smo najbolji otvori novi račun i uverite se sami :)
Photo

Narodni heroj Ljiljan Vidić (2015)


6 replies to this topic

#1
BD_TV

BD_TV

    Gold Member

  • Sponsor
  • PipPipPipPipPipPip
  • 8,669 posts
  • 503948 thanks

Narodni heroj Ljiljan Vidić (2015) DVDRip x264 AC3 5.1 - BD4YU

 

0hHUfmb.jpg
 

IZVORNO IME: Narodni heroj Ljiljan Vidic
REDATELJ: Ivan-Goran Vitez  |  ŽANR: komedija
ULOGE: Christian Coltrane, Dražen Kühn, Živko Anočić, Stojan Matavulj, Stjepan Perić, Tena Jeić-Gajski, Ljubiša Savanović, Ivan Đuričić, Dragan Despot, Dražen Čuček
TRAJANJE FILMA: 110 minuta  |  GODINA: 2015  |  DRŽAVA: Hrvatska
POČETAK PRIKAZIVANJA: 31.12.2015

Opis filma: Mladog seoskog pjesnika Ljiljana Drugi svjetski rat raznosi po ključnim mjestima naše junačke prošlosti. Ljiljan dobiva priliku upoznati svoje idole Vladimira Nazora i Ivana Gorana Kovačića, pridružiti se partizanskoj četi s odvažnim planom kako privesti kraju rat, a koji uključuje pobjedu na NDH talent - showu "Čimbenik X" .Susreti s Hrvatskim Intelektualnim Pokretom(HIP), Josipom Brozom Titom i Antom Pavelićem do kraja će razviti Ljiljanove pjesničke potencijale.
 

 

Ivy8Fba.jpg

 

 

Hidden Content
You'll be able to see the hidden content once you thank this post.



Thanked by 812 Members:

#2
BD_TV

BD_TV

    Gold Member

  • Sponsor
  • PipPipPipPipPipPip
  • 8,669 posts
  • 503948 thanks

Narodni heroj Ljiljan Vidić (2015) FULL DVD by stipa91

 

82279_0.jpg

 

82279_1.jpg

 

 

Hidden Content
You'll be able to see the hidden content once you thank this post.



Thanked by 345 Members:

#3
tonym

tonym

    Advanced Member

  • Members
  • PipPipPip
  • 254 posts
  • 26657 thanks
  • Locationtu okolo

Narodni heroj Ljiljan Vidic (

Please Login or Register to see this Hidden Content

)

 

0SR39tj.jpg

 

Ra517Jr.jpg

 

Please Login or Register to see this Hidden Content

 

Hidden Content
You'll be able to see the hidden content once you thank this post.


Edited by tonym, 12 May 2016 - 07:35.

"Liježuć mislim svagda: »Kada ću ustati?« a dižuć se: »Kada večer dočekati!« I tako se kinjim sve dok se ne smrkne."

 

 

 

 


Thanked by 370 Members:

#4
tttrojannnn

tttrojannnn

    Bronze Member

  • Members
  • PipPipPipPip
  • 1,981 posts
  • 17761 thanks

Narodni heroj Ljiljan Vidic / Narodni heroj Ljiljan Vidić (2015)

4anb2ca.jpg?1

Žanr: Komedija, Ratni
Redatelj: Ivan-Goran Vitez  
Scenarij Zoran Lazić

Glavne uloge:
Christian Coltrane, Stjepan Perić, Tena Jeić Gajski, Ljubiša Savanović, Ivan Đuričić, Stojan Matavulj, Dragan Despot, Dražen Čuček, Dražen Kühn, Slavica Knežević, Dražen Bratulić, Anja Šovagović Despot, Zvonimir Zoričić, Živko Anočić, Filip Križan

Opis:
Drugi je svjetski rat: Narodnooslobodilački pokret je pred raspadom. Mladi pjesnik Ljiljan Vidić priključuje se partizanima i dobiva zadatak napisati pjesmu s kojom će partizanski bend pokušati pobijediti na NDH-ovskom talent showu i osvojiti nastup na Poglavnikovu domjenku, pred samim Hitlerom, gdje ih imaju priliku likvidirati i privesti Drugi svjetski rat kraju.


Please Login or Register to see this Hidden Content


Narodni.Heroj.Ljiljan.Vidic.2015.DVDRip.720p.x264-daredule.mkv
Size: 898068541 bytes (856.46 MiB), duration: 01:46:59, avg.bitrate: 1119 kb/s
Audio: aac, 48000 Hz, 5.1, s16 (hrv)
Video: h264, yuv420p, 1280x536, 25.00 fps® (hrv)

K8lfm3i.jpg

Hidden Content
You'll be able to see the hidden content once you thank this post.




Thanked by 425 Members:

#5
LEMONZOO

LEMONZOO

    Bronze Member

  • VIP
  • PipPipPipPip
  • 1,082 posts
  • 18319 thanks
  • LocationGavran Mahala

Narodni heroj Ljiljan Vidić (2015) DVDRip x264 AC3 5.1 - BD4YU

0hhufmbznkfb.jpg

Please Login or Register to see this Hidden Content

This comedy of the absurd is set in the Nazi puppet Independent State of Croatia (NDH) during World War II. The hero, Ljiljan is a young peasant poet who joins the Partisan movement just before it falls apart, abandoned by its leader Tito. The last remaining hope for resisting Nazism is to assassinate Hitler. Ljiljan's task is to write a song that will allow his Partisan band to infiltrate the inner sanctum of the SS - by entering an SS talent show. If they win the competition, they will be invited to perform before Hitler and the NDH's high command. This is a satirical coming-of-age tale with a difference, capturing the craziness, comedy and horror of war in the Balkans.


File Name: Narodni.Heroj.Ljiljan.Vidic.2015.DVDRip.x264-BD4YU.mkv
File Size: 1.43 GB

[Container]
Format: MATROSKA,WEBM  (Matroska / WebM)
Duration: 01:46:59.48
Bit Rate: 1,927 kbps

[Metadata]
CREATION_TIME: 2016-05-11T13:18:11Z
ENCODER: Lavf55.12.0

[Video]
Codec: H264  (H.264 / AVC / MPEG-4 AVC / MPEG-4 part 10)
Codec Tag: [0][0][0][0] (0x00000000)
Picture Size: 720x400  (PAR 64:45, DAR 64:25)
Frame Rate: 25.00 fps
Bit Rate: 1,703 kbps

[Audio]
Codec: AC3  (ATSC A/52A (AC-3))
Channels: 5.1 ch
Sample Rate: 48,000 Hz
Sample Data Format: 32 bits (Float)
Bit Rate: 224 kbps

narodni.heroj.ljiljanyaooq.jpg

narodni.heroj.ljiljan85op7.jpg

narodni.heroj.ljiljan3wqnd.jpg

Hidden Content
You'll be able to see the hidden content once you thank this post.


Thanked by 336 Members:

#6
Wolf 13

Wolf 13

    Advanced Member

  • Members
  • PipPipPip
  • 426 posts
  • 33341 thanks
Narodni heroj Ljiljan Vidic (2015) DVDrip DD5.1 x264 by Wolf
(MKV) HQ
 
YYTVKWW.jpg
 

Please Login or Register to see this Hidden Content

 

General
Unique ID                   : 173527908768245238050980186931421150060 (0x828C4273128AFF82BA492841E41E7B6C)
Complete name               : Narodni heroj Ljiljan Vidic (2015) DVDrip DD5.1 x264 by Wolf.mkv
Format                      : Matroska
Format version              : Version 4
File size                   : 1.39 GiB
Duration                    : 1 h 47 min
Overall bit rate            : 1 856 kb/s
Encoded date                : UTC 2019-05-29 17:24:09
Writing application         : mkvmerge v34.0.0 ('Sight and Seen') 64-bit
Writing library             : libebml v1.3.7 + libmatroska v1.5.0 / Lavf58.20.100
 
Video
ID                          : 1
Format                      : AVC
Format/Info                 : Advanced Video Codec
Format profile              : [email protected]
Format settings             : CABAC / 16 Ref Frames
Format settings, CABAC      : Yes
Format settings, ReFrames   : 16 frames
Codec ID                    : V_MPEG4/ISO/AVC
Duration                    : 1 h 46 min
Bit rate                    : 1 600 kb/s
Width                       : 720 pixels
Height                      : 438 pixels
Display aspect ratio        : 2.35:1
Frame rate mode             : Constant
Frame rate                  : 25.000 FPS
Color space                 : YUV
Chroma subsampling          : 4:2:0
Bit depth                   : 8 bits
Scan type                   : Progressive
Bits/(Pixel*Frame)          : 0.203
Stream size                 : 1.20 GiB (86%)
Title                       : Narodni heroj Ljiljan Vidic (2015)
Writing library             : x264 core 157 r2935 545de2f
Encoding settings           : cabac=1 / ref=16 / deblock=1:-1:-1 / analyse=0x3:0x133 / me=umh / subme=10 / psy=1 / psy_rd=1.00:0.15 / mixed_ref=1 / me_range=24 / chroma_me=1 / trellis=2 / 8x8dct=1 / cqm=0 / deadzone=21,11 / fast_pskip=1 / chroma_qp_offset=-3 / threads=6 / lookahead_threads=1 / sliced_threads=0 / nr=0 / decimate=1 / interlaced=0 / bluray_compat=0 / constrained_intra=0 / bframes=8 / b_pyramid=2 / b_adapt=2 / b_bias=0 / direct=3 / weightb=1 / open_gop=0 / weightp=2 / keyint=250 / keyint_min=25 / scenecut=40 / intra_refresh=0 / rc_lookahead=60 / rc=2pass / mbtree=1 / bitrate=1600 / ratetol=1.0 / qcomp=0.60 / qpmin=0 / qpmax=69 / qpstep=4 / cplxblur=20.0 / qblur=0.5 / vbv_maxrate=300000 / vbv_bufsize=300000 / nal_hrd=none / filler=0 / ip_ratio=1.40 / aq=1:1.00
Language                    : Croatian
Default                     : Yes
Forced                      : No
Color range                 : Limited
Color primaries             : BT.601 PAL
Transfer characteristics    : BT.709
Matrix coefficients         : BT.601
 
Audio
ID                          : 2
Format                      : E-AC-3
Format/Info                 : Enhanced AC-3
Commercial name             : Dolby Digital Plus
Codec ID                    : A_EAC3
Duration                    : 1 h 47 min
Bit rate mode               : Constant
Bit rate                    : 256 kb/s
Channel(s)                  : 6 channels
Channel layout              : L R C LFE Ls Rs
Sampling rate               : 48.0 kHz
Frame rate                  : 31.250 FPS (1536 SPF)
Compression mode            : Lossy
Stream size                 : 196 MiB (14%)
Title                       : Narodni heroj Ljiljan Vidic (2015)
Language                    : Croatian
Service kind                : Complete Main
Default                     : Yes
Forced                      : No
 
epYscVA.png
Hidden Content
You'll be able to see the hidden content once you thank this post.
zbNKcak.jpg
Hidden Content
You'll be able to see the hidden content once you thank this post.
 
kuBTfDv.png
JmEXLBC.jpg

Edited by Wolf 13, 29 May 2019 - 22:45.


Thanked by 118 Members:

#7
nikolakralj100

nikolakralj100

    Advanced Member

  • Members
  • PipPipPip
  • 346 posts
  • 20489 thanks

DVDr

 

Cjx5ai0.jpg

 

V8wp0dZ.jpg

 

Hidden Content
You'll be able to see the hidden content once you thank this post.


Thanked by 80 Members:



0 user(s) are reading this topic

0 members, 0 guests, 0 anonymous users