Jump to content

Dobrodošli na Balkandownload.org
Tražite domaće knjige, exyu magazine, sinhronizirane crtane filmove, PC i ostale igre, strane i domaće filmove, dokumentarce, stranu i domaću muziku, itd. ? Ne morate tražiti dalje jer sve ćete to naći kod nas, uredno postavljeno i spremno za download. Osim toga registracijom možete sudjelovati u raznim postojećim temama na forumu, otvarati nove teme, sudjelovati u chatu i još mnogo toga. Ako već imaš otvoren račun, logiraj se ovde ,a ako želiš saznati zašto smo najbolji otvori novi račun i uverite se sami :)

Lepa Sela Lepo Gore ( 1996 )


3 replies to this topic

#1
Guest_*offline*_*

Guest_*offline*_*
  • Guests
  • thanks

Lepa Sela Lepo Gore (1996)

 

bKQAMZk.jpg



Thanked by 444 Members:

#2
Wolf 13

Wolf 13

    Advanced Member

  • Members
  • PipPipPip
  • 426 posts
  • 33531 thanks

Lepa sela lepo gore (1996) DVDrip DD5.1 x264 by Wolf

(MKV)
 
VEbmOGO.jpg
 

Please Login or Register to see this Hidden Content

 

General
Unique ID                   : 32920054131689199657845624517374290572 (0x18C42BFB3C698073557BA2F7DA78AA8C)
Complete name               : Lepa sela lepo gore (1996) DVDrip DD5.1 x264 by Wolf.mkv
Format                      : Matroska
Format version              : Version 4
File size                   : 1.68 GiB
Duration                    : 2 h 9 min
Overall bit rate            : 1 856 kb/s
Encoded date                : UTC 2019-03-29 19:52:53
Writing application         : mkvmerge v32.0.0 ('Astral Progressions') 64-bit
Writing library             : libebml v1.3.7 + libmatroska v1.5.0 / Lavf58.20.100
 
Video
ID                          : 1
Format                      : AVC
Format/Info                 : Advanced Video Codec
Format profile              : [email protected]
Format settings             : CABAC / 16 Ref Frames
Format settings, CABAC      : Yes
Format settings, ReFrames   : 16 frames
Codec ID                    : V_MPEG4/ISO/AVC
Duration                    : 2 h 9 min
Bit rate                    : 1 600 kb/s
Width                       : 696 pixels
Height                      : 412 pixels
Display aspect ratio        : 16:9
Frame rate mode             : Constant
Frame rate                  : 25.000 FPS
Color space                 : YUV
Chroma subsampling          : 4:2:0
Bit depth                   : 8 bits
Scan type                   : Progressive
Bits/(Pixel*Frame)          : 0.223
Stream size                 : 1.45 GiB (86%)
Title                       : Lepa sela lepo gore (1996)
Writing library             : x264 core 157 r2935 545de2f
Encoding settings           : cabac=1 / ref=16 / deblock=1:-1:-1 / analyse=0x3:0x133 / me=umh / subme=10 / psy=1 / psy_rd=1.00:0.15 / mixed_ref=1 / me_range=24 / chroma_me=1 / trellis=2 / 8x8dct=1 / cqm=0 / deadzone=21,11 / fast_pskip=1 / chroma_qp_offset=-3 / threads=6 / lookahead_threads=1 / sliced_threads=0 / nr=0 / decimate=1 / interlaced=0 / bluray_compat=0 / constrained_intra=0 / bframes=8 / b_pyramid=2 / b_adapt=2 / b_bias=0 / direct=3 / weightb=1 / open_gop=0 / weightp=2 / keyint=250 / keyint_min=25 / scenecut=40 / intra_refresh=0 / rc_lookahead=60 / rc=2pass / mbtree=1 / bitrate=1600 / ratetol=1.0 / qcomp=0.60 / qpmin=0 / qpmax=69 / qpstep=4 / cplxblur=20.0 / qblur=0.5 / vbv_maxrate=300000 / vbv_bufsize=300000 / nal_hrd=none / filler=0 / ip_ratio=1.40 / aq=1:1.00
Language                    : Serbian
Default                     : Yes
Forced                      : No
Color range                 : Limited
Color primaries             : BT.601 PAL
Transfer characteristics    : BT.709
Matrix coefficients         : BT.601
 
Audio
ID                          : 2
Format                      : E-AC-3
Format/Info                 : Enhanced AC-3
Commercial name             : Dolby Digital Plus
Codec ID                    : A_EAC3
Duration                    : 2 h 9 min
Bit rate mode               : Constant
Bit rate                    : 256 kb/s
Channel(s)                  : 6 channels
Channel layout              : L R C LFE Ls Rs
Sampling rate               : 48.0 kHz
Frame rate                  : 31.250 FPS (1536 SPF)
Compression mode            : Lossy
Delay relative to video     : -5 ms
Stream size                 : 237 MiB (14%)
Title                       : Lepa sela lepo gore (1996)
Language                    : Serbian
Service kind                : Complete Main
Default                     : Yes
Forced                      : No
 
epYscVA.png
Hidden Content
You'll be able to see the hidden content once you thank this post.
 
pKjhyQR.png
mJhUVwJ.jpg

Edited by Wolf 13, 30 March 2019 - 09:23.


Thanked by 343 Members:

#3
Biotloneta

Biotloneta

    Bronze Member

  • Moderator
  • PipPipPipPip
  • 1,406 posts
  • 65092 thanks
  • LocationRobija
                         Lepa sela lepo gore (1996)
 
                                                                    70816.jpg
 

Please Login or Register to see this Hidden Content

 
Opis: Radnja filma počinje u jednoj beogradskoj vojnoj bolnici gde su smešteni ranjenici rata u Bosni i Hercegovini. U bolnici se filmski junaci sećaju mladosti i rata. Priča se vrti oko dvojice dečaka, Halila - Muslimana, i Milana - Srbina, koji su odrasli zajedno u selu blizu napuštenog tunela. Kao deca se nisu usudili da uđu u tunel, jer su verovali da tamo boravi „drekavac“. Dvanaest godina kasnije, tokom rata u Bosni, Milan, zarobljen u tunelu sa svojim saborcima, i Halil nalaze se na suprotnim stranama, sudbinski srljajući u sukob. Među iscrpelim srpskim borcima našla se i jedna zalutala američka novinarka.
 
Uloge:
Dragan Bjelogrlić Milan
Nikola Kojo Velja
Velimir Bata Živojinović Gvozden
Zoran Cvijanović Brzi
Dragan Maksimović profesor Petar
Milorad Mandić Manda Viljuška
Dragan Petrović Laza
Nikola Pejaković Halil
Liza Monkjur Liza
Marko Kovijanić Marko
Petar Božović Slobodan
Renata Ulmanski Milanova majka
Vera Dedović učiteljica
Dragan Zarić Nazim
Branko Vidaković diler
Dubravko Jovanović vojni policajac/ratni profiter
Branka Katić bolničarka
Milena Pavlović bolničarka
Mira Banjac Veljina majka
Nebojša Ilić Veljin brat
Boris Milivojević zarobljeni Musliman
Feđa Stojanović Džemal Bijedić
Melita Bihali Halilova majka
 
Režija: Srđan Dragojević
 
Žanr: Drama, Komedija

 

vfWJm44.jpg

Hidden Content
You'll be able to see the hidden content once you thank this post.


  tumblr_o89ik1YZEl1ssbvp5o1_500.gif

 

Za repload mrtvih linkova (domaćih filmova) ili želje za postavljanjem nekog filma kog ne možete da pronađete, obratite mi se putem privatne poruke.


Thanked by 189 Members:

#4
Zoran_

Zoran_

    Gold Member

  • VIP
  • PipPipPipPipPipPip
  • 5,988 posts
  • 149554 thanks
Lepa sela lepo gore (1996)
 
 
k3zs4ga.png
 
Su6Ksi6.jpg
 

Please Login or Register to see this Hidden Content

 
Film pocinje u Beogradskoj vojnoj bolnici gde su smestene zrtve Bosanskog rata. U bolnici se filmski junaci secaju mladosti i rata. Prica se vrti oko dvojice decaka, Halila - Muslimana, i Milana - Srbina, koji su odrasli zajedno u selu blizu napustenog tunela. Kao deca se nisu usudili da udju, jer su verovali da tamo obitava drekavac. Dvanaest godina kasnije, tokom Bosanskog rata, Milan, zarobljen u tunelu sa svojim saborcima, i Halil nalaze se na suprotnim stranama, sudbinski srljajuci u sukob. Da sve bude jos zamrsenije medju opsednutim Srpskim borcima nasla se i jedna zalutala americka novinarka.
 
vt3acysq7hv.png
 
AYNah29.gif
 
hDtUXrY.gif sa boljim slikama1
 
4l393eR.jpg
 
Oets6ur.gif
 
Lepa sela lepo gore (1996) DVDRip.x264.mkv
 
SFYUbuP.jpg
 
Hidden Content
You'll be able to see the hidden content once you thank this post.

Molbe za moje linkove, šaljite na PP.

 

Zabranjeno je kopiranje mojih linkova,reupload i postavljanje na druge forume!


Thanked by 156 Members:



0 user(s) are reading this topic

0 members, 0 guests, 0 anonymous users