Jump to content

Dobrodošli na Balkandownload.org
Tražite domaće knjige, exyu magazine, sinhronizirane crtane filmove, PC i ostale igre, strane i domaće filmove, dokumentarce, stranu i domaću muziku, itd. ? Ne morate tražiti dalje jer sve ćete to naći kod nas, uredno postavljeno i spremno za download. Osim toga registracijom možete sudjelovati u raznim postojećim temama na forumu, otvarati nove teme, sudjelovati u chatu i još mnogo toga. Ako već imaš otvoren račun, logiraj se ovde ,a ako želiš saznati zašto smo najbolji otvori novi račun i uverite se sami :)

Mrtav Ladan ( 2002 )


3 replies to this topic

#1
Guest_*offline*_*

Guest_*offline*_*
  • Guests
  • thanks

Mrtav.Ladan.2002.720p.WEB-DL.x264-Infamous2K



Thanked by 457 Members:

#2
Wolf 13

Wolf 13

    Advanced Member

  • Members
  • PipPipPip
  • 426 posts
  • 33612 thanks
Mrtav 'ladan (2002) DVDrip E-AC3 x264 by Wolf
(MKV)
 
v1FLLT6.jpg
 

Please Login or Register to see this Hidden Content

 

General
Unique ID                   : 135109170040702678710564443890503276465 (0x65A51462E9579DE9B3B6DE6C6E2E57B1)
Complete name               : Mrtav 'ladan (2002) DVDrip E-AC3 x264 by Wolf.mkv
Format                      : Matroska
Format version              : Version 4 / Version 2
File size                   : 1.25 GiB
Duration                    : 1 h 44 min
Overall bit rate            : 1 712 kb/s
Encoded date                : UTC 2018-11-10 22:47:55 / UTC 2018-11-10T17:55:41Z
Writing application         : mkvmerge v28.2.0 ('The Awakening') 64-bit
Writing library             : libebml v1.3.6 + libmatroska v1.4.9 / Lavf57.7.2
 
Video
ID                          : 1
Format                      : AVC
Format/Info                 : Advanced Video Codec
Format profile              : High [email protected]
Format settings             : CABAC / 16 Ref Frames
Format settings, CABAC      : Yes
Format settings, ReFrames   : 16 frames
Codec ID                    : V_MPEG4/ISO/AVC
Duration                    : 1 h 44 min
Bit rate                    : 1 422 kb/s
Nominal bit rate            : 1 500 kb/s
Width                       : 706 pixels
Height                      : 452 pixels
Display aspect ratio        : 16:9
Original display aspect rat : 16:10
Frame rate mode             : Constant
Frame rate                  : 25.000 FPS
Color space                 : YUV
Chroma subsampling          : 4:2:0
Bit depth                   : 10 bits
Scan type                   : Progressive
Bits/(Pixel*Frame)          : 0.178
Stream size                 : 1.04 GiB (83%)
Title                       : Mrtav 'ladan (2002)
Writing library             : x264 core 155 r2901 7d0ff22
Encoding settings           : cabac=1 / ref=16 / deblock=1:-1:-1 / analyse=0x3:0x133 / me=umh / subme=10 / psy=1 / psy_rd=1.00:0.15 / mixed_ref=1 / me_range=24 / chroma_me=1 / trellis=2 / 8x8dct=1 / cqm=0 / deadzone=21,11 / fast_pskip=1 / chroma_qp_offset=-3 / threads=6 / lookahead_threads=1 / sliced_threads=0 / nr=0 / decimate=1 / interlaced=0 / bluray_compat=0 / constrained_intra=0 / bframes=8 / b_pyramid=2 / b_adapt=2 / b_bias=0 / direct=3 / weightb=1 / open_gop=0 / weightp=2 / keyint=250 / keyint_min=25 / scenecut=40 / intra_refresh=0 / rc_lookahead=60 / rc=2pass / mbtree=1 / bitrate=1500 / ratetol=1.0 / qcomp=0.60 / qpmin=0 / qpmax=81 / qpstep=4 / cplxblur=20.0 / qblur=0.5 / vbv_maxrate=150000 / vbv_bufsize=187500 / nal_hrd=none / filler=0 / ip_ratio=1.40 / aq=1:1.00
Language                    : Serbian
Default                     : Yes
Forced                      : No
Color range                 : Limited
Color primaries             : BT.601 PAL
Transfer characteristics    : BT.709
Matrix coefficients         : BT.601
Statistics Tags Issue       : mkvmerge v28.2.0 ('The Awakening') 64-bit 2018-11-10 22:47:55 / mkvmerge v28.2.0 ('The Awakening') 64-bit 2018-11-10 22:47:55 / UTC 2018-11-10T17:55:41Z
FromStats_BitRate           : 1499964
FromStats_Duration          : 01:41:31.000000000
FromStats_FrameCount        : 152275
FromStats_StreamSize        : 1142035443
 
Audio
ID                          : 2
Format                      : E-AC-3
Format/Info                 : Enhanced Audio Coding 3
Codec ID                    : A_EAC3
Duration                    : 1 h 44 min
Bit rate mode               : Constant
Bit rate                    : 256 kb/s
Channel(s)                  : 6 channels
Channel positions           : Front: L C R, Side: L R, LFE
Sampling rate               : 48.0 kHz
Frame rate                  : 187.500 FPS (256 SPF)
Compression mode            : Lossy
Delay relative to video     : -5 ms
Stream size                 : 192 MiB (15%)
Title                       : Mrtav 'ladan (2002)
Language                    : Serbian
Service kind                : Complete Main
Default                     : Yes
Forced                      : No
Statistics Tags Issue       : mkvmerge v28.2.0 ('The Awakening') 64-bit 2018-11-10 22:47:55 / mkvmerge v28.2.0 ('The Awakening') 64-bit 2018-11-10 22:47:55 / UTC 2018-11-10T17:55:41Z
FromStats_BitRate           : 256000
FromStats_Duration          : 01:44:41.920000000
FromStats_FrameCount        : 196310
FromStats_StreamSize        : 201021440
 
epYscVA.png
Hidden Content
You'll be able to see the hidden content once you thank this post.
 
cr9uQpm.png
ocordFD.jpg

Edited by Wolf 13, 11 November 2018 - 11:11.


Thanked by 312 Members:

#3
Biotloneta

Biotloneta

    Bronze Member

  • Moderator
  • PipPipPipPip
  • 1,409 posts
  • 65977 thanks
  • LocationRobija
Mrtav 'ladan (2002)
 
MV5BNGFhMjI3ZWQtNmI2Mi00MWUyLWI2NzktODcz
 

Please Login or Register to see this Hidden Content

 
Opis: Dvojica braće, Kiza i Lemi, švercuju svog mrtvog dedu u vozu jer nemaju novac da ga prebace u Vršac, gde ih čeka njihov nezgodan otac koga se mnogo plaše. U vozu se nađe i narko-diler Limeni, koji putuje sa tuđim detetom, a plašeći se policije, ubaci dedi paketić droge u džep. Kiza i Lemi odlaze u vagon restoran, voz naglo koči, a težak kofer pada Dedi na glavu. Ostali putnici u kupeu konstatuju da je to ubilo dedu. Svako iz svojih razloga ne želi policiju u kupeu i oni reše da ga izbace kroz prozor. I tada nastaje potraga za dedom koga svi traže... U priču se upliću milicioner željan unapređenja, šofer koji glumi detektiva, dva ratara koja se spore oko međe...
 
Uloge:
Mihajlo Bata Paskaljević Deda
Srđan Todorović Kiza
Nenad Jezdić Lemi
Nikola Đuričko Limeni
Sonja Kolačarić Maja
Tara Manić Ana
Velimir Bata Živojinović Stanislav
Milorad Mandić Radovan
Slobodan Ninković Mića 'Šaft'
Branislav Zeremski Đura
Nikola Pejaković Kole
Olivera Marković Baba u vozu
Miodrag Krstović Otac Kize i Lemija
Radmila Živković Majka Kize i Lemija
Milica Mihajlović Narkomanka
Goran Sultanović Doktor
Mihajlo Jovanović mladić u vozu
Nađa Sekulić Milunka
Đorđe Šargaš Radule
Ana Maljević Limenova bivša devojka
Dušan Tadić pogrebnik
Namkos Bangue Milica
Marko Jocić kelner Mile
Bojan Dimitrijević drugi saobraćajac
Miroljub Lešo šef stanice
Ivana Jovanović Riba
Gordana Les
Miodrag Gajić
Istok Tornjanski
Dimitrije Ilić
Milan Bajić
Milan Lugomirski
Predrag Bajčetić
 
Režija: Milorad Milinković
 
Žanr: Komedija
 

NF6WUXC.jpg

 
Hidden Content
You'll be able to see the hidden content once you thank this post.

  tumblr_o89ik1YZEl1ssbvp5o1_500.gif

 

Za repload mrtvih linkova (domaćih filmova) ili želje za postavljanjem nekog filma kog ne možete da pronađete, obratite mi se putem privatne poruke.


Thanked by 166 Members:

#4
Zoran_

Zoran_

    Gold Member

  • VIP
  • PipPipPipPipPipPip
  • 5,990 posts
  • 149801 thanks
Mrtav 'ladan (2002)
 
 
yFmIT0b.png
 
Su6Ksi6.jpg
 

Please Login or Register to see this Hidden Content

 
Dvojica braće, Kiza i Lemi, švercuju svog mrtvog dedu u vozu jer nemaju novac da ga prebace u Vršac, gdje ih čeka njihov nezgodan otac koga se mnogo plaše. U vozu se nađe i narko diler Limeni, koji, plašeći se policije, ubaci dedi paketić droge u džep. Kiza i Lemi odlaze u vagon restoran, voz naglo koči, a težak kofer pada Dedi na glavu. Ostali putnici u kupeu konstatuju da je to ubilo dedu. Svako iz svojih razloga ne želi policiju u kupeu i oni riješe da ga izbace kroz prozor. I tada nastaje potraga za dedom koga svi traže ...
 
yoxel33gi4.png
 
VdLDkx7.gif
 
emPMlZd.jpg
 
Oets6ur.gif
 
Mrtav 'ladan (2002) DVDRip.x264.mkv 
 
SFYUbuP.jpg
 
Hidden Content
You'll be able to see the hidden content once you thank this post.

Molbe za moje linkove, šaljite na PP.

 

Zabranjeno je kopiranje mojih linkova,reupload i postavljanje na druge forume!


Thanked by 128 Members:



0 user(s) are reading this topic

0 members, 0 guests, 0 anonymous users