Jump to content

Dobrodošli na Balkandownload.org
Tražite domaće knjige, exyu magazine, sinhronizirane crtane filmove, PC i ostale igre, strane i domaće filmove, dokumentarce, stranu i domaću muziku, itd. ? Ne morate tražiti dalje jer sve ćete to naći kod nas, uredno postavljeno i spremno za download. Osim toga registracijom možete sudjelovati u raznim postojećim temama na forumu, otvarati nove teme, sudjelovati u chatu i još mnogo toga. Ako već imaš otvoren račun, logiraj se ovde ,a ako želiš saznati zašto smo najbolji otvori novi račun i uverite se sami :)

Otpisani ( 1974 )


3 replies to this topic

#1
Guest_*offline*_*

Guest_*offline*_*
  • Guests
  • thanks

Otpisani.1974.720p.WEB-DL.x264-Infamous2K

 

dIseAbh.jpg

 

 


Na vest da je Adolf Hitler napao Sovjetski Savez, grupa mladih skojevaca odlučuje da formira ilegalnu grupu da bi se suprotstavili Vermahtu. Prvo moraju da oslobode članicu štaba iz glavne bolnice koju je Gestapo uhapsio, a u drugom da dignu u vazduh nemačku garažu.
Producent:
Scenario: Sinisa Pavic, Dragan Marković
Režija: Aleksandar Đorđević    
Direktor fotografije: Milorad Marković    
Scenograf: Veljko Despotović    
Kostimograf: Svetlana Mišković
Kompozitor: Milivoje Marković    
Montažer: Olga Skrigin    
Glumci: Aleksandar Berček, Dragan Nikolić, Predrag Miki Manojlović, Stevo Žigon, Vojislav Brajović, Dragomir Felba, Žarko Radić, Slobodan Aligrudić, Čedomir Petrović, Vladan Holec  

 

SCREENSHOT :

 

hwdGMt0.jpg

 

DOWNLOAD :

Please Login or Register to see this Hidden Content



Thanked by 188 Members:

#2
dakle

dakle

    Advanced Member

  • Banovan
  • PipPipPip
  • 340 posts
  • 39871 thanks
  • LocationBALKAN

Otpisani.1974.HDTV.720p.x264

 

62pSQeu.png

 

Otpisani je jugoslovenski ratni film, snimljen u produkciji Televizije Beograd 1974.

Film prati dve avanture mladih ilegalaca u okupiranom Beogradu za vreme Drugog svetskog rata. Napravljen je zbog velike popularnosti istoimene TV Serije i predstavlja spoj prve dve epizode.Film je režirao, Aleksandar Aca Đorđević, a scenario su napisali Dragan Marković i Siniša Pavić.

Na vest da je Adolf Hitler napao Sovjetski Savez, grupa mladih skojevaca odlučuje da formira ilegalnu grupu da bi se suprotstavili Vermahtu. Prvo moraju da oslobode članicu štaba iz glavne bolnice koju je Gestapo uhapsio, a u drugom da dignu u vazduh nemačku garažu.

Uloge: Dragan Nikolić, Voja Brajović, Predrag Miki Manojlović, Vladan Holec, Rade Marković, Slobodan Aligrudić, Stevo Žigon...

 

Complete name                            : Otpisani.1974.HDTV.720p.x264
Format                                   : Matroska
Format version                           : Version 2
File size                                : 1.88 GiB
Duration                                 : 1 h 18 min
Overall bit rate mode                    : Variable
Overall bit rate                         : 3 413 kb/s
Writing application                      : Lavf52.64.2
Writing library                          : Lavf52.64.2

Video
ID                                       : 1
Format                                   : AVC
Format/Info                              : Advanced Video Codec
Format profile                           : [email protected]
Format settings, CABAC                   : Yes
Format settings, ReFrames                : 3 frames
Format settings, GOP                     : M=3, N=33
Codec ID                                 : V_MPEG4/ISO/AVC
Duration                                 : 1 h 18 min
Bit rate mode                            : Variable
Bit rate                                 : 3 185 kb/s
Maximum bit rate                         : 19.2 Mb/s
Width                                    : 1 280 pixels
Height                                   : 720 pixels
Display aspect ratio                     : 16:9
Frame rate mode                          : Constant
Frame rate                               : 25.000 FPS
Standard                                 : PAL
Color space                              : YUV
Chroma subsampling                       : 4:2:0
Bit depth                                : 8 bits
Scan type                                : Progressive
Bits/(Pixel*Frame)                       : 0.138
Stream size                              : 1.76 GiB (93%)
Default                                  : Yes
Forced                                   : No
Color range                              : Limited
Color primaries                          : BT.709
Transfer characteristics                 : BT.709
Matrix coefficients                      : BT.709

Audio
ID                                       : 2
Format                                   : MPEG Audio
Format version                           : Version 1
Format profile                           : Layer 2
Codec ID                                 : A_MPEG/L2
Codec ID/Hint                            : MP2
Duration                                 : 1 h 18 min
Bit rate mode                            : Constant
Bit rate                                 : 160 kb/s
Channel(s)                               : 2 channels
Sampling rate                            : 48.0 kHz
Compression mode                         : Lossy
Stream size                              : 90.4 MiB (5%)
Default                                  : Yes
Forced                                   : No

 

DOWNLOAD:

Please Login or Register to see this Hidden Content


:excl: Za obnovu isteklih/mrtvih linkova, pišite mi u PM. :excl:

:yes:- BALKANDOWNLOAD -Balkan no.1 Forum - :yes:


Thanked by 38 Members:
Vlada Mika , BigX , lilke , fladoje , JD36 , vukotastosic , nikad robom 3 , Petard32 , chefko , RAD23 , todosije , smart2010 , Jay1972N , kocke , zkorda , Stefi_1997 , 1moon2spell , beograd1960' , brkicts , ogischa , icaleptir , Milan1959 , boskabbb , Rastko28 , ezdyg1944 , Biotloneta , noah26 , westax , moviefreek , dekibl , PucaPukiBrat , kormi17 , Melitta , NiCr , somrda , Zelenac1 , Vule83 , sajpreshil

#3
Wolf 13

Wolf 13

    Advanced Member

  • Members
  • PipPipPip
  • 426 posts
  • 33420 thanks
Otpisani (1974) DVDrip E-AC3 x264 by Wolf
(MKV)
 
WqsfSB2.jpg
 

Please Login or Register to see this Hidden Content

 

General
Unique ID                   : 228422291376320550498792223154303671854 (0xABD88878C3B701036B29FBDB9B641E2E)
Complete name               : Otpisani (1974) DVDrip E-AC3 x264 by Wolf.mkv
Format                      : Matroska
Format version              : Version 4 / Version 2
File size                   : 995 MiB
Duration                    : 1 h 19 min
Overall bit rate            : 1 756 kb/s
Encoded date                : UTC 2018-11-02 20:08:04 / UTC 2018-11-02T12:56:22Z
Writing application         : mkvmerge v28.2.0 ('The Awakening') 64-bit
Writing library             : libebml v1.3.6 + libmatroska v1.4.9 / Lavf57.7.2
 
Video
ID                          : 1
Format                      : AVC
Format/Info                 : Advanced Video Codec
Format profile              : High [email protected]
Format settings             : CABAC / 16 Ref Frames
Format settings, CABAC      : Yes
Format settings, ReFrames   : 16 frames
Codec ID                    : V_MPEG4/ISO/AVC
Duration                    : 1 h 19 min
Bit rate                    : 1 500 kb/s
Width                       : 696 pixels
Height                      : 574 pixels
Display aspect ratio        : 16:9
Original display aspect rat : 1.293
Frame rate mode             : Constant
Frame rate                  : 25.000 FPS
Color space                 : YUV
Chroma subsampling          : 4:2:0
Bit depth                   : 10 bits
Scan type                   : Progressive
Bits/(Pixel*Frame)          : 0.150
Stream size                 : 830 MiB (83%)
Title                       : Otpisani (1974)
Writing library             : x264 core 155 r2901 7d0ff22
Encoding settings           : cabac=1 / ref=16 / deblock=1:-1:-1 / analyse=0x3:0x133 / me=umh / subme=10 / psy=1 / psy_rd=1.00:0.15 / mixed_ref=1 / me_range=24 / chroma_me=1 / trellis=2 / 8x8dct=1 / cqm=0 / deadzone=21,11 / fast_pskip=1 / chroma_qp_offset=-3 / threads=6 / lookahead_threads=1 / sliced_threads=0 / nr=0 / decimate=1 / interlaced=0 / bluray_compat=0 / constrained_intra=0 / bframes=8 / b_pyramid=2 / b_adapt=2 / b_bias=0 / direct=3 / weightb=1 / open_gop=0 / weightp=2 / keyint=250 / keyint_min=25 / scenecut=40 / intra_refresh=0 / rc_lookahead=60 / rc=2pass / mbtree=1 / bitrate=1500 / ratetol=1.0 / qcomp=0.60 / qpmin=0 / qpmax=81 / qpstep=4 / cplxblur=20.0 / qblur=0.5 / vbv_maxrate=150000 / vbv_bufsize=187500 / nal_hrd=none / filler=0 / ip_ratio=1.40 / aq=1:1.00
Language                    : Serbian
Default                     : Yes
Forced                      : No
Color range                 : Limited
Color primaries             : BT.601 PAL
Transfer characteristics    : BT.709
Matrix coefficients         : BT.601
Statistics Tags Issue       : mkvmerge v28.2.0 ('The Awakening') 64-bit 2018-11-02 20:08:04 / mkvmerge v28.2.0 ('The Awakening') 64-bit 2018-11-02 20:08:04 / UTC 2018-11-02T12:56:22Z
FromStats_BitRate           : 1499998
FromStats_Duration          : 01:19:09.000000000
FromStats_FrameCount        : 118704
FromStats_StreamSize        : 890436382
 
Audio
ID                          : 2
Format                      : E-AC-3
Format/Info                 : Enhanced Audio Coding 3
Codec ID                    : A_EAC3
Duration                    : 1 h 19 min
Bit rate mode               : Constant
Bit rate                    : 256 kb/s
Channel(s)                  : 6 channels
Channel positions           : Front: L C R, Side: L R, LFE
Sampling rate               : 48.0 kHz
Frame rate                  : 187.500 FPS (256 SPF)
Compression mode            : Lossy
Stream size                 : 145 MiB (15%)
Title                       : Otpisani (1974)
Language                    : Serbian
Service kind                : Complete Main
Default                     : Yes
Forced                      : No
Statistics Tags Issue       : mkvmerge v28.2.0 ('The Awakening') 64-bit 2018-11-02 20:08:04 / mkvmerge v28.2.0 ('The Awakening') 64-bit 2018-11-02 20:08:04 / UTC 2018-11-02T12:56:22Z
FromStats_BitRate           : 256000
FromStats_Duration          : 01:19:14.368000000
FromStats_FrameCount        : 148574
FromStats_StreamSize        : 152139776
 
epYscVA.png
Hidden Content
You'll be able to see the hidden content once you thank this post.
 
a28NeUX.png
Qh0nbYy.jpg


Thanked by 56 Members:
dmmd , Vlada Mika , akiro , lovaccc , xnoz25 , shtaps , bond2019 , BigX , Zarko1234 , Edifier , iljeva990 , lilke , fladoje , b50andi , vukotastosic , Petard32 , chefko , RAD23 , todosije , Jay1972N , rafael13 , zkorda , Stefi_1997 , zok , dakule , dragorobi , nsboris , kocke , gor , racoiv , TeodorM1976 , daxdo , vlaha8 , JaSamBre82 , rima , beograd1960' , ifet , mikula11 , abc123 , totp , krabulja , goraneo , r2d2 , awoloc , settim , brkicts , Franci , Zelenac1 , maldivi , Mitko , dopre , Gorolomac , Cocco Bill , neshka , opetopet , gigo2

#4
Zoran_

Zoran_

    Gold Member

  • VIP
  • PipPipPipPipPipPip
  • 5,984 posts
  • 149282 thanks
Otpisani (1974)
 
 
Otpisani1974.png
 
Su6Ksi6.jpg
 

Please Login or Register to see this Hidden Content

 
1941 godine Beograd je pod okupacijom. Omladina organizuje pokret otpora protiv agresora i deluje organizovano. Sprovode takve akcije i sa takvim rezultatima da vrlo brzo dolaze na sam vrh crne liste okupatora...
 
0j037e25kog.png
 
Otpisani1974.avi.gif
 
Otpisani1974.avi.jpg
 
Oets6ur.gif
 
Otpisani (1974) DVDRip.XviD.avi
 
SFYUbuP.jpg
 
Hidden Content
You'll be able to see the hidden content once you thank this post.

Molbe za moje linkove, šaljite na PP.

 

Zabranjeno je kopiranje mojih linkova,reupload i postavljanje na druge forume!


Thanked by 51 Members:
Njegoš , centrala88 , Nenad71088 , curetak , megastraus , A4ka , lovaccc , vukoje32 , goransokolovic.fr , xnoz25 , nsrule , Edin-Dino , bond2019 , lilke , Zarko1234 , Milenaa94 , Vlada Mika , kormi17 , iljeva990 , fladoje , Asddsa666 , runjaa , b50andi , vukotastosic , Dadohh , Steev , nikad robom 3 , Petard32 , RAD23 , todosije , zvezdas , kocke , Arnautovic54 , zicko , johnrangel25 , radašin , nAnaD , mackosopa , zkorda , Stefi_1997 , TeodorM1976 , direhard , dakule , kresomirovic , mean machine , cigoyner , kockari , Nebojsa1985 , MP22 , ARMY.PLL , nsboris



0 user(s) are reading this topic

0 members, 0 guests, 0 anonymous users