Jump to content

Dobrodošli na Balkandownload.org
Tražite domaće knjige, exyu magazine, sinhronizirane crtane filmove, PC i ostale igre, strane i domaće filmove, dokumentarce, stranu i domaću muziku, itd. ? Ne morate tražiti dalje jer sve ćete to naći kod nas, uredno postavljeno i spremno za download. Osim toga registracijom možete sudjelovati u raznim postojećim temama na forumu, otvarati nove teme, sudjelovati u chatu i još mnogo toga. Ako već imaš otvoren račun, logiraj se ovde ,a ako želiš saznati zašto smo najbolji otvori novi račun i uverite se sami :)

Mars na Drinu / Marš na Drinu ( 1964 )


3 replies to this topic

#1
Guest_*offline*_*

Guest_*offline*_*
  • Guests
  • thanks

Mars.na.Drinu.1964.720p.WEB-DL.x264-Infamous2K

 

jb4trLv.jpg

 

 


Film počinje objavljivanjem opšte mobilizacije u Srbiji. Artiljeriski stariji vodnik Veca, koji potiče iz bogate bankarske porodice, raspoređen je u artiljerijskoj bateriji. U prošlom ratu, bio je član jedne komisije, koja je nabavljala topove. Njegova porodica i sada želi da ga postavi u tu komisiju, ali on želi da se priključi bateriji, i krene u rat.
 
Artiljerijska baterija se spremila za pokret (u kojoj je raspoređen Veca). Nalaze se u Aranđelovcu, dok njihovi komandanti imaju sastanak. Na sastanku, pešadijski major Kursula, iznosi svoje mišljenje o tome, da će glavni napad Austrougarska na Srbiju izvršiti preko reke Drine, a ne preko reke Save, kako je bilo očekivano.
Producent:
Scenario: Arsen Diklić, Živorad Žika Mitrović
Režija: Živorad Žika Mitrović    
Direktor fotografije: Milorad Marković    
Scenograf: Miomir Denić    
Kostimograf: Danka Pavlović
Kompozitor: Vasilije Mokranjac    
Montažer: Katarina Stojanović    
Glumci: Ljubiša Jovanović, Ljuba Tadić, Dragomir Bojanic Gidra, Vladimir Popović, Ružica Sokić, Branko Pleša, Zoran Radmilović, Aleksandar Gavrić, Husein Čokić, Branislav Jerinić

 

SCREENSHOT :

 

D1EHNhN.jpg

 

DOWNLOAD :

 

LINKOVI SE MOGU KOMBINOVATI

 

bjJCcDS.png
 
Hidden Content
You'll be able to see the hidden content once you thank this post.
 
vWNtf0E.png
 
Hidden Content
You'll be able to see the hidden content once you thank this post.
 
LLmYmY8.png
 
Hidden Content
You'll be able to see the hidden content once you thank this post.
 
Aon3ZXg.png
 
Hidden Content
You'll be able to see the hidden content once you thank this post.


Thanked by 285 Members:

#2
Wolf 13

Wolf 13

    Advanced Member

  • Members
  • PipPipPip
  • 426 posts
  • 33680 thanks
Mars na Drinu (1964) DVDrip DD5.1 x264 by Wolf
(MKV)
 
32cSNsG.jpg
 

Please Login or Register to see this Hidden Content

 

General
Unique ID                   : 128554619985876232678859483249199596879 (0x60B6B81E4746CBCC71B3531D86C8C54F)
Complete name               : Mars na Drinu (1964) DVDrip DD5.1 x264 by Wolf.mkv
Format                      : Matroska
Format version              : Version 4
File size                   : 1.32 GiB
Duration                    : 1 h 41 min
Overall bit rate            : 1 858 kb/s
Encoded date                : UTC 2019-02-16 15:31:18
Writing application         : mkvmerge v31.0.0 ('Dolores In A Shoestand') 64-bit
Writing library             : libebml v1.3.6 + libmatroska v1.4.9 / Lavf58.20.100
 
Video
ID                          : 1
Format                      : AVC
Format/Info                 : Advanced Video Codec
Format profile              : [email protected]
Format settings             : CABAC / 16 Ref Frames
Format settings, CABAC      : Yes
Format settings, ReFrames   : 16 frames
Codec ID                    : V_MPEG4/ISO/AVC
Duration                    : 1 h 41 min
Bit rate                    : 1 600 kb/s
Width                       : 674 pixels
Height                      : 576 pixels
Display aspect ratio        : 16:9
Original display aspect rat : 5:3
Frame rate mode             : Constant
Frame rate                  : 25.000 FPS
Color space                 : YUV
Chroma subsampling          : 4:2:0
Bit depth                   : 8 bits
Scan type                   : Progressive
Bits/(Pixel*Frame)          : 0.165
Stream size                 : 1.13 GiB (86%)
Title                       : Mars na Drinu (1964)
Writing library             : x264 core 157 r2935 545de2f
Encoding settings           : cabac=1 / ref=16 / deblock=1:-1:-1 / analyse=0x3:0x133 / me=umh / subme=10 / psy=1 / psy_rd=1.00:0.15 / mixed_ref=1 / me_range=24 / chroma_me=1 / trellis=2 / 8x8dct=1 / cqm=0 / deadzone=21,11 / fast_pskip=1 / chroma_qp_offset=-3 / threads=6 / lookahead_threads=1 / sliced_threads=0 / nr=0 / decimate=1 / interlaced=0 / bluray_compat=0 / constrained_intra=0 / bframes=8 / b_pyramid=2 / b_adapt=2 / b_bias=0 / direct=3 / weightb=1 / open_gop=0 / weightp=2 / keyint=250 / keyint_min=25 / scenecut=40 / intra_refresh=0 / rc_lookahead=60 / rc=2pass / mbtree=1 / bitrate=1600 / ratetol=1.0 / qcomp=0.60 / qpmin=0 / qpmax=69 / qpstep=4 / cplxblur=20.0 / qblur=0.5 / vbv_maxrate=300000 / vbv_bufsize=300000 / nal_hrd=none / filler=0 / ip_ratio=1.40 / aq=1:1.00
Language                    : Serbian
Default                     : Yes
Forced                      : No
Color range                 : Limited
Color primaries             : BT.601 PAL
Transfer characteristics    : BT.709
Matrix coefficients         : BT.601
 
Audio
ID                          : 2
Format                      : E-AC-3
Format/Info                 : Enhanced AC-3
Commercial name             : Dolby Digital Plus
Codec ID                    : A_EAC3
Duration                    : 1 h 41 min
Bit rate mode               : Constant
Bit rate                    : 256 kb/s
Channel(s)                  : 6 channels
Channel layout              : L R C LFE Ls Rs
Sampling rate               : 48.0 kHz
Frame rate                  : 31.250 FPS (1536 SPF)
Compression mode            : Lossy
Delay relative to video     : -5 ms
Stream size                 : 186 MiB (14%)
Title                       : Mars na Drinu (1964)
Language                    : Serbian
Service kind                : Complete Main
Default                     : Yes
Forced                      : No
 
epYscVA.png
Hidden Content
You'll be able to see the hidden content once you thank this post.
 
XG7dDRD.png
kwbCnZY.jpg

Edited by Wolf 13, 16 February 2019 - 22:58.


Thanked by 94 Members:

#3
BD_TV

BD_TV

    Gold Member

  • Sponsor
  • PipPipPipPipPipPip
  • 8,689 posts
  • 510239 thanks

Marš na Drinu (1964) HDTV 720p x264

Hidden Content
You'll be able to see the hidden content once you thank this post.

 

Y1NNxiD.png



Thanked by 113 Members:

#4
Zoran_

Zoran_

    Gold Member

  • VIP
  • PipPipPipPipPipPip
  • 6,007 posts
  • 150137 thanks
Mars na Drinu (1964)
 
 
ve4ecNF.png
 
Su6Ksi6.jpg
 

Please Login or Register to see this Hidden Content

 
Pocetak Prvog svetskog rata. Jedna baterija srpske artiljerije usiljenim marsem, bez zastoja i predaha, stize na Cer i, u odsudnom trenutku, prihvata borbu i odbacuje austrijske trupe koje su prodrle u zemlju. Ovo nije samo hronika cerske bitke, nego drama Srbije i jednog naroda koji je ucinio nemoguce, u borbi protiv carevine koja hoce da mu oduzme zemlju, drama koja se zasniva na verodostojnim dogadajima i autenticnim dokumentima.
 
vj423jkjcu6.png
 
yqIC20Y.gif
 
X656iDQ.jpg
 
Oets6ur.gif
 
Mars na Drinu (1964) DVDRip.x264.mkv
 
SFYUbuP.jpg
 
Hidden Content
You'll be able to see the hidden content once you thank this post.

Molbe za moje linkove, šaljite na PP.

 

Zabranjeno je kopiranje mojih linkova,reupload i postavljanje na druge forume!


Thanked by 67 Members:
pametnipotemkin , dominic22 , Nenad71088 , jadjonbv , scofield123 , aleksoo , nsrule , vlast69 , goransokolovic.fr , Gandra3 , milanalorica , gabrijel4 , AccccO , dgema82 , Vule83 , sloznabraca , severijan , anaaboki , kormi17 , b50andi , tesseka48 , james12320 , nesaBB , zvezdas , severing , elki69 , andjeo , zicko , jimjarmusch , scarto , 1991vedran , lurc81 , urosevac , jedan.clan , 08sale82 , csaxko , dzimislav leone , nocaronion , slavisa1968 , kresomirovic , TeodorM1976 , artemida , slavonac69 , BobbyPeruAd , tonitaxi , rima , marockee , MP22 , zzzoran , Prene , cigoyner , fanSte_97 , pulmo61 , milostr , pina , satserb , uros032 , AleksLapovo , Milfir , Jokso , arsomilic , 011gogo , Franci , rile1972 , Zelenac1 , Gorolomac , Nebojsa1985



0 user(s) are reading this topic

0 members, 0 guests, 0 anonymous users