Jump to content

Dobrodošli na Balkandownload.org
Tražite domaće knjige, exyu magazine, sinhronizirane crtane filmove, PC i ostale igre, strane i domaće filmove, dokumentarce, stranu i domaću muziku, itd. ? Ne morate tražiti dalje jer sve ćete to naći kod nas, uredno postavljeno i spremno za download. Osim toga registracijom možete sudjelovati u raznim postojećim temama na forumu, otvarati nove teme, sudjelovati u chatu i još mnogo toga. Ako već imaš otvoren račun, logiraj se ovde ,a ako želiš saznati zašto smo najbolji otvori novi račun i uverite se sami :)

Mala nocna muzika / Little Night Music ( 2002 )


3 replies to this topic

#1
Guest_*offline*_*

Guest_*offline*_*
  • Guests
  • thanks

Mala nocna muzika / Little Night Music ( 2002 ) DVD

 

of7BO07.jpg

Ng1DsFA.jpg

 

 


Spasoje i Cole simpatični su i pomalo blesavi mladići koji stalno upadaju u smiješne i rizične situacije. Oni rade u mrtvačnici. Jedne noći začuju mobitel koji zvoni u džepu netom pridošlog mrtvaca. Naravno, ne mogu odoljeti, te se javljaju na mobilni telefon. Na drugoj strani je čovjek koji im naređuje da odu na određenu adresu i podignu novac.

Cole i Spasoje naravno neće odbaciti laku zaradu, no itekako će se iznenaditi po dolasku na zaanu destinaciju. U stanu će ih dočekati starija žena koja ih želi seksualno iskoristiti. Vidjevši spasojevu 'opermu' dobiva infarkt i na mjestu umire. Izlaza više nema.

Dvojica prijatelja pokušavaju igrati igru u kojoj se ne snalaze baš najbolje. Za njih je to prevelik zalogaj. Kada se umiješaju ozbiljni ljudi iz svijeta kriminala i porno industrije, prelaze iz avanture u avanturu u kojima susreću mnoge bizarne likove.

 

SCREENSHOTS :

 

rM5gZ8P.jpg

sL4kzhd.jpg

r1JnAJo.jpg



Thanked by 206 Members:

#2
dakle

dakle

    Advanced Member

  • Banovan
  • PipPipPip
  • 340 posts
  • 39877 thanks
  • LocationBALKAN

Mala noćna muzika (2002)

 

g8c21zs.jpg

 

Spasoje i Cole su mladići koji rade u mrtvačnici i stalno upadaju u rizične situacije. Jedne noći začuju telefon koji zvoni u džepu nedavno pridošlog mrtvaca. Naravno, ne mogu da odole i iz znatiželje prihvataju poziv. Na drugoj strani je čovek koji im naređuje da odu na određenu adresu i podignu novac. Oni, nadajući se lakoj zaradi, odlaze na dogovoreno mesto, ali ne mogu ni da pretpostave šta ih čeka. Tamo ih dočekuje starija žena koja želi seksualno da ih iskoristi, ali sticajem okolnosti dobija infarkt i umire. Iz situacije u situaciju život im se sve više komplikuje.

Please Login or Register to see this Hidden Content

u7Xcook.jpg

 

DOWNLOAD:

Hidden Content
You'll be able to see the hidden content once you thank this post.


:excl: Za obnovu isteklih/mrtvih linkova, pišite mi u PM. :excl:

:yes:- BALKANDOWNLOAD -Balkan no.1 Forum - :yes:


Thanked by 127 Members:

#3
Zoran_

Zoran_

    Gold Member

  • VIP
  • PipPipPipPipPipPip
  • 5,984 posts
  • 149352 thanks
Mala nocna muzika (2002)
 
 
pFoqqeM.png
 
Su6Ksi6.jpg
 

Please Login or Register to see this Hidden Content

 
Spasoje i Cole simpatični su i pomalo blesavi mladići koji stalno upadaju u smiješne i rizične situacije. Oni rade u mrtvačnici. Jedne noći začuju mobitel koji zvoni u džepu netom pridošlog mrtvaca. Naravno, ne mogu odoljeti, te se javljaju na mobilni telefon. Na drugoj strani je čovjek koji im naređuje da odu na određenu adresu i podignu novac.Cole i Spasoje naravno neće odbaciti laku zaradu, no itekako će se iznenaditi po dolasku na zaanu destinaciju. U stanu će ih dočekati starija žena koja ih želi seksualno iskoristiti. Vidjevši spasojevu 'opermu' dobiva infarkt i na mjestu umire. Izlaza više nema.Dvojica prijatelja pokušavaju igrati igru u kojoj se ne snalaze baš najbolje. Za njih je to prevelik zalogaj. Kada se umiješaju ozbiljni ljudi iz svijeta kriminala i porno industrije, prelaze iz avanture u avanturu u kojima susreću mnoge bizarne likove.
 
7rh4662yle.png
 
jkzq2dh.gif
 
5C1exnM.jpg
 
Oets6ur.gif
 
Mala nocna muzika (2002) DVDRip.x264.mkv
 
SFYUbuP.jpg
 
Hidden Content
You'll be able to see the hidden content once you thank this post.

Molbe za moje linkove, šaljite na PP.

 

Zabranjeno je kopiranje mojih linkova,reupload i postavljanje na druge forume!


Thanked by 81 Members:

#4
Wolf 13

Wolf 13

    Advanced Member

  • Members
  • PipPipPip
  • 426 posts
  • 33458 thanks
Mala nocna muzika (2002) DVDrip AC3 5.1 x264 by Wolf
(MKV) HQ
 
6t4Qbz4.jpg
 

Please Login or Register to see this Hidden Content

 

General
Unique ID                   : 148163574506815097600326373364491169328 (0x6F774438198177BC1B1CD0A1D2A52E30)
Complete name               : Mala nocna muzika (2002) DVDrip AC3 5.1 x264 by Wolf.mkv
Format                      : Matroska
Format version              : Version 4
File size                   : 1.13 GiB
Duration                    : 1 h 31 min
Overall bit rate            : 1 757 kb/s
Encoded date                : UTC 2018-12-21 11:10:53 / UTC 2018-12-21T08:42:39Z
Writing application         : mkvmerge v29.0.0 ('Like It Or Not') 64-bit
Writing library             : libebml v1.3.6 + libmatroska v1.4.9 / Lavf57.7.2
 
Video
ID                          : 1
Format                      : AVC
Format/Info                 : Advanced Video Codec
Format profile              : [email protected]
Format settings             : CABAC / 8 Ref Frames
Format settings, CABAC      : Yes
Format settings, ReFrames   : 8 frames
Codec ID                    : V_MPEG4/ISO/AVC
Duration                    : 1 h 31 min
Bit rate                    : 1 500 kb/s
Width                       : 716 pixels
Height                      : 576 pixels
Display aspect ratio        : 16:9
Original display aspect rat : 4:3
Frame rate mode             : Constant
Frame rate                  : 25.000 FPS
Color space                 : YUV
Chroma subsampling          : 4:2:0
Bit depth                   : 8 bits
Scan type                   : Progressive
Bits/(Pixel*Frame)          : 0.145
Stream size                 : 962 MiB (83%)
Title                       : Mala nocna muzika (2002)
Writing library             : x264 core 155 r2901 7d0ff22
Encoding settings           : cabac=1 / ref=8 / deblock=1:-1:-1 / analyse=0x3:0x133 / me=umh / subme=9 / psy=1 / psy_rd=1.00:0.15 / mixed_ref=1 / me_range=16 / chroma_me=1 / trellis=2 / 8x8dct=1 / cqm=0 / deadzone=21,11 / fast_pskip=1 / chroma_qp_offset=-3 / threads=6 / lookahead_threads=1 / sliced_threads=0 / nr=0 / decimate=1 / interlaced=0 / bluray_compat=0 / constrained_intra=0 / bframes=3 / b_pyramid=2 / b_adapt=2 / b_bias=0 / direct=3 / weightb=1 / open_gop=0 / weightp=2 / keyint=250 / keyint_min=25 / scenecut=40 / intra_refresh=0 / rc_lookahead=60 / rc=2pass / mbtree=1 / bitrate=1500 / ratetol=1.0 / qcomp=0.60 / qpmin=0 / qpmax=69 / qpstep=4 / cplxblur=20.0 / qblur=0.5 / vbv_maxrate=300000 / vbv_bufsize=300000 / nal_hrd=none / filler=0 / ip_ratio=1.40 / aq=1:1.00
Language                    : Serbian
Default                     : Yes
Forced                      : No
Color range                 : Limited
Color primaries             : BT.601 PAL
Transfer characteristics    : BT.709
Matrix coefficients         : BT.601
Statistics Tags Issue       : mkvmerge v29.0.0 ('Like It Or Not') 64-bit 2018-12-21 11:10:53 / mkvmerge v29.0.0 ('Like It Or Not') 64-bit 2018-12-21 11:10:53 / UTC 2018-12-21T08:42:39Z
FromStats_BitRate           : 1499203
FromStats_Duration          : 01:31:46.320000000
FromStats_FrameCount        : 137658
FromStats_StreamSize        : 1031886627
 
Audio
ID                          : 2
Format                      : E-AC-3
Format/Info                 : Enhanced AC-3
Commercial name             : Dolby Digital Plus
Codec ID                    : A_EAC3
Duration                    : 1 h 31 min
Bit rate mode               : Constant
Bit rate                    : 256 kb/s
Channel(s)                  : 6 channels
Channel layout              : L R C LFE Ls Rs
Sampling rate               : 48.0 kHz
Frame rate                  : 31.250 FPS (1536 SPF)
Compression mode            : Lossy
Delay relative to video     : -85 ms
Stream size                 : 168 MiB (15%)
Title                       : Mala nocna muzika (2002)
Language                    : Serbian
Service kind                : Complete Main
Default                     : Yes
Forced                      : No
Statistics Tags Issue       : mkvmerge v29.0.0 ('Like It Or Not') 64-bit 2018-12-21 11:10:53 / mkvmerge v29.0.0 ('Like It Or Not') 64-bit 2018-12-21 11:10:53 / UTC 2018-12-21T08:42:39Z
FromStats_BitRate           : 256000
FromStats_Duration          : 01:31:46.432000000
FromStats_FrameCount        : 172076
FromStats_StreamSize        : 176205824
 
epYscVA.png
Hidden Content
You'll be able to see the hidden content once you thank this post.
 
MqltwCM.png
W3GYAk9.jpg


Thanked by 44 Members:
nitrox24 , jadjonbv , misapop , 303808909 , UroshUch , vlada70 , dupin , spoonkiller , Topcider , PNPN , malicrv , Nenad__ , zuki_yu , m1a2r3k4o56 , wedran19 , evolution , vajtaun , nvdsrs , chefko , boldy021 , jasminap , diamond , Maky001 , Chika_Miki , faragondes , Ozzy80 , rafael13 , bule68 , fritz200300 , Auto Plus , kanki , danijeladanijel , triplesec , mirza hodzic , Shey , bestraga , kusrach , t3rminat0r , BokiKV , icaleptir , Gromila , Biotloneta , El Dacho , dammar



0 user(s) are reading this topic

0 members, 0 guests, 0 anonymous users