Jump to content

Dobrodošli na Balkandownload.org
Tražite domaće knjige, exyu magazine, sinhronizirane crtane filmove, PC i ostale igre, strane i domaće filmove, dokumentarce, stranu i domaću muziku, itd. ? Ne morate tražiti dalje jer sve ćete to naći kod nas, uredno postavljeno i spremno za download. Osim toga registracijom možete sudjelovati u raznim postojećim temama na forumu, otvarati nove teme, sudjelovati u chatu i još mnogo toga. Ako već imaš otvoren račun, logiraj se ovde ,a ako želiš saznati zašto smo najbolji otvori novi račun i uverite se sami :)
Photo

Tuck Everlasting (1981)

1981 sad

  • Please log in to reply
No replies to this topic

#1
LEMONZOO

LEMONZOO

    Advanced Member

  • VIP
  • PipPipPip
  • 739 posts
  • 2932 thanks
  • LocationGavran Mahala

Tuck Everlasting (1981) VHSRip

tuck_everlasting_1981q4sxv.jpg

Please Login or Register to see this Hidden Content


In turn-of-the-20th-century upstate New York, Winnie Foster, a 12-year-old girl, discovers a family living in the woods near her family's home who never ages thanks to a magical spring they drink from and she is entrusted to keep their secret and becomes involved in their lives.


General
Complete name               : Tuck_Everlasting.avi
Format                      : AVI
Format/Info                 : Audio Video Interleave
File size                   : 1.48 GiB
Duration                    : 2h 0mn
Overall bit rate            : 1 755 Kbps
Writing application         : MEncoder dev-CVS-060307-04:23-4.0.1
Writing library             : MPlayer

Video
ID                          : 0
Format                      : MPEG-4 Visual
Format profile              : [email protected]
Format settings, BVOP       : No
Format settings, QPel       : No
Format settings, GMC        : No warppoints
Format settings, Matrix     : Default (H.263)
Codec ID                    : DIVX
Codec ID/Info               : Project Mayo
Codec ID/Hint               : DivX 4
Duration                    : 2h 0mn
Bit rate                    : 1 485 Kbps
Width                       : 528 pixels
Height                      : 400 pixels
Display aspect ratio        : 4:3
Frame rate                  : 29.970 fps
Color space                 : YUV
Chroma subsampling          : 4:2:0
Bit depth                   : 8 bits
Scan type                   : Progressive
Compression mode            : Lossy
Bits/(Pixel*Frame)          : 0.235
Stream size                 : 1.25 GiB (85%)
Writing library             : Lavc51.7.0

Audio
ID                          : 1
Format                      : MPEG Audio
Format version              : Version 1
Format profile              : Layer 3
Mode                        : Joint stereo
Mode extension              : MS Stereo
Codec ID                    : 55
Codec ID/Hint               : MP3
Duration                    : 2h 0mn
Bit rate mode               : Constant
Bit rate                    : 256 Kbps
Channel(s)                  : 2 channels
Sampling rate               : 48.0 KHz
Compression mode            : Lossy
Stream size                 : 221 MiB (15%)
Alignment                   : Aligned on interleaves
Interleave, duration        : 24 ms (0.72 video frame)
Interleave, preload duratio : 504 ms





tuck_everlasting.avi_qssas.jpg

tuck_everlasting.avi_gtspk.jpg

tuck_everlasting.avi_ezsw1.jpg

tuck_everlasting.avi_b6sx3.jpg


Hidden Content
You'll be able to see the hidden content once you thank this post.


Thanked by 2 Members:
hajdukjovance , ScouseXile




Also tagged with one or more of these keywords: 1981, sad

0 user(s) are reading this topic

0 members, 0 guests, 0 anonymous users