Jump to content

Dobrodošli na Balkandownload.org
Tražite domaće knjige, exyu magazine, sinhronizirane crtane filmove, PC i ostale igre, strane i domaće filmove, dokumentarce, stranu i domaću muziku, itd. ? Ne morate tražiti dalje jer sve ćete to naći kod nas, uredno postavljeno i spremno za download. Osim toga registracijom možete sudjelovati u raznim postojećim temama na forumu, otvarati nove teme, sudjelovati u chatu i još mnogo toga. Ako već imaš otvoren račun, logiraj se ovde ,a ako želiš saznati zašto smo najbolji otvori novi račun i uverite se sami :)
Photo

Fender Bender (2016)


  • Please log in to reply
No replies to this topic

#1
diamond

diamond

    Newbie

  • Members
  • Pip
  • 27 posts
  • 284 thanks

Fender.Bender.2016.1080p.CRO-DIAMOND

 

 

Fender%20Bender%20%282016%29.jpg

 

Please Login or Register to see this Hidden Content

Please Login or Register to see this Hidden Content

Please Login or Register to see this Hidden Content

 

 

Please Login or Register to see this Hidden Content

 

Capture.JPG

 

 

Subtitle: English

Podnaslov : Engleski

 

 

Complete name                            : Fender.Bender.2016.1080p.CRO-DIAMOND.mkv
Format                                   : Matroska
Format version                           : Version 4 / Version 2
File size                                : 3.15 GiB
Duration                                 : 1h 30mn
Overall bit rate                         : 4 964 Kbps
Movie name                               : CRO DIAMOND 1080p
Encoded date                             : UTC 2016-10-11 20:28:31
Writing application                      : mkvmerge v6.7.0 ('Back to the Ground') 64bit built on Jan  9 2014 18:03:17
Writing library                          : libebml v1.3.0 + libmatroska v1.4.1

Video
ID                                       : 1
Format                                   : AVC
Format/Info                              : Advanced Video Codec
Format profile                           : [email protected]
Format settings, CABAC                   : Yes
Format settings, ReFrames                : 5 frames
Codec ID                                 : V_MPEG4/ISO/AVC
Duration                                 : 1h 30mn
Bit rate                                 : 4 482 Kbps
Width                                    : 1 912 pixels
Height                                   : 792 pixels
Display aspect ratio                     : 2.40:1
Frame rate mode                          : Constant
Frame rate                               : 23.976 fps
Color space                              : YUV
Chroma subsampling                       : 4:2:0
Bit depth                                : 8 bits
Scan type                                : Progressive
Bits/(Pixel*Frame)                       : 0.123
Stream size                              : 2.85 GiB (90%)
Language                                 : English
Default                                  : Yes
Forced                                   : No
Color range                              : Limited
Color primaries                          : BT.709
Transfer characteristics                 : BT.709
Matrix coefficients                      : BT.709

Audio
ID                                       : 2
Format                                   : AC-3
Format/Info                              : Audio Coding 3
Mode extension                           : CM (complete main)
Format settings, Endianness              : Big
Codec ID                                 : A_AC3
Duration                                 : 1h 30mn
Bit rate mode                            : Constant
Bit rate                                 : 384 Kbps
Channel(s)                               : 6 channels
Channel positions                        : Front: L C R, Side: L R, LFE
Sampling rate                            : 48.0 KHz
Compression mode                         : Lossy
Stream size                              : 250 MiB (8%)
Language                                 : English
Default                                  : Yes
Forced                                   : No

Text
ID                                       : 3
Format                                   : UTF-8
Codec ID                                 : S_TEXT/UTF8
Codec ID/Info                            : UTF-8 Plain Text
Language                                 : English
Default                                  : No
Forced                                   : No

Menu
00:00:00.000                             : en:Chapter 1
00:10:42.000                             : en:Chapter 2
00:20:45.000                             : en:Chapter 3
00:30:06.000                             : en:Chapter 4
00:40:00.000                             : en:Chapter 5
00:50:17.000                             : en:Chapter 6
00:59:48.000                             : en:Chapter 7
01:10:08.000                             : en:Chapter 8
01:21:17.000                             : en:Chapter 9
01:27:45.000                             : en:Chapter 10

 

Hidden Content
You'll be able to see the hidden content once you thank this post.


Edited by Mmelita, 16 October 2016 - 21:56.
likovi moraju biti i u hide i u code tagu


Thanked by 11 Members:
face10 , [email protected] , haxorstudio , offset , mbojic , 12jojko , Rand , Vaske2000 , pukovnik23 , 70sandi , jakata



0 user(s) are reading this topic

0 members, 0 guests, 0 anonymous users