Jump to content

Dobrodošli na Balkandownload.org
Tražite domaće knjige, exyu magazine, sinhronizirane crtane filmove, PC i ostale igre, strane i domaće filmove, dokumentarce, stranu i domaću muziku, itd. ? Ne morate tražiti dalje jer sve ćete to naći kod nas, uredno postavljeno i spremno za download. Osim toga registracijom možete sudjelovati u raznim postojećim temama na forumu, otvarati nove teme, sudjelovati u chatu i još mnogo toga. Ako već imaš otvoren račun, logiraj se ovde ,a ako želiš saznati zašto smo najbolji otvori novi račun i uverite se sami :)
Photo

The Dog Lover (2016)


  • Please log in to reply
No replies to this topic

#1
diamond

diamond

    Newbie

  • Members
  • Pip
  • 27 posts
  • 280 thanks

The.Dog.Lover.2016.1080p.CRO-DIAMOND

 

The%20Dog%20Lover%20%282016%29.jpg

 

Please Login or Register to see this Hidden Content

Please Login or Register to see this Hidden Content

Please Login or Register to see this Hidden Content

 

Subtitle: English

Podnaslov : Engleski

 

 

 

Please Login or Register to see this Hidden Content

 

Capture.JPG

 

 

General
Unique ID                                : 6749686311381607542171242673562873529 (0x513F13A74F56C8C853BA0D520326EB9)
Complete name                            : The.Dog.Lover.aka.The.Wrong.Side.of.Right.2016.1080p.CRO-DIAMOND.mkv
Format                                   : Matroska
Format version                           : Version 4 / Version 2
File size                                : 3.45 GiB
Duration                                 : 1h 41mn
Overall bit rate                         : 4 857 Kbps
Movie name                               : CRO DIAMOND 1080p
Encoded date                             : UTC 2016-10-12 14:48:40
Writing application                      : mkvmerge v7.2.0 ('On Every Street') 64bit built on Oct  7 2014 18:52:30
Writing library                          : libebml v1.3.0 + libmatroska v1.4.1
DURATION                                 : 01:37:45.592000000
NUMBER_OF_FRAMES                         : 1367
NUMBER_OF_BYTES                          : 50983
_STATISTICS_WRITING_APP                  : mkvmerge v7.2.0 ('On Every Street') 64bit built on Oct  7 2014 18:52:30
_STATISTICS_WRITING_DATE_UTC             : 2016-10-12 14:48:40
_STATISTICS_TAGS                         : BPS DURATION NUMBER_OF_FRAMES NUMBER_OF_BYTES

Video
ID                                       : 1
Format                                   : AVC
Format/Info                              : Advanced Video Codec
Format profile                           : [email protected]
Format settings, CABAC                   : Yes
Format settings, ReFrames                : 5 frames
Codec ID                                 : V_MPEG4/ISO/AVC
Duration                                 : 1h 41mn
Bit rate                                 : 4 377 Kbps
Width                                    : 1 920 pixels
Height                                   : 796 pixels
Display aspect ratio                     : 2.40:1
Frame rate mode                          : Constant
Frame rate                               : 23.976 fps
Color space                              : YUV
Chroma subsampling                       : 4:2:0
Bit depth                                : 8 bits
Scan type                                : Progressive
Bits/(Pixel*Frame)                       : 0.119
Stream size                              : 3.11 GiB (90%)
Title                                    : CRO DIAMOND 1080p
Language                                 : English
Default                                  : Yes
Forced                                   : No
Color range                              : Limited
Color primaries                          : BT.709
Transfer characteristics                 : BT.709
Matrix coefficients                      : BT.709

Audio
ID                                       : 2
Format                                   : AC-3
Format/Info                              : Audio Coding 3
Mode extension                           : CM (complete main)
Format settings, Endianness              : Big
Codec ID                                 : A_AC3
Duration                                 : 1h 41mn
Bit rate mode                            : Constant
Bit rate                                 : 384 Kbps
Channel(s)                               : 6 channels
Channel positions                        : Front: L C R, Side: L R, LFE
Sampling rate                            : 48.0 KHz
Compression mode                         : Lossy
Stream size                              : 279 MiB (8%)
Language                                 : English
Default                                  : Yes
Forced                                   : No

Text
ID                                       : 3
Format                                   : UTF-8
Codec ID                                 : S_TEXT/UTF8
Codec ID/Info                            : UTF-8 Plain Text
Language                                 : English
Default                                  : No
Forced                                   : No

Menu
00:00:00.000                             : en:1
00:06:01.653                             : en:2
00:12:37.507                             : en:3
00:19:21.619                             : en:4
00:26:47.856                             : en:5
00:33:42.228                             : en:6
00:39:16.395                             : en:7
00:45:55.127                             : en:8
00:50:20.392                             : en:9
00:58:27.921                             : en:10
01:03:18.544                             : en:11
01:09:40.551                             : en:12
01:15:49.711                             : en:13
01:23:32.340                             : en:14
01:28:36.727                             : en:15
01:35:18.295                             : en:16

 

Hidden Content
You'll be able to see the hidden content once you thank this post.


Edited by Mmelita, 16 October 2016 - 21:55.
likovi moraju biti i u hide i u code tagu


Thanked by 23 Members:
face10 , nesho74 , ZickoCRO , bolelena , Ycopa , Orao , jumanjinz , Mihajela , dankani , atmarex , marina2008 , majona75 , tapson , tole321 , bikana31 , Rand , kor , Vaske2000 , pukovnik23 , laki44 , kristina kik , nenadnedjo , zlaja67



0 user(s) are reading this topic

0 members, 0 guests, 0 anonymous users