Jump to content

Dobrodošli na Balkandownload.org
Tražite domaće knjige, exyu magazine, sinhronizirane crtane filmove, PC i ostale igre, strane i domaće filmove, dokumentarce, stranu i domaću muziku, itd. ? Ne morate tražiti dalje jer sve ćete to naći kod nas, uredno postavljeno i spremno za download. Osim toga registracijom možete sudjelovati u raznim postojećim temama na forumu, otvarati nove teme, sudjelovati u chatu i još mnogo toga. Ako već imaš otvoren račun, logiraj se ovde ,a ako želiš saznati zašto smo najbolji otvori novi račun i uverite se sami :)
Photo

Sam (2015)


  • Please log in to reply
No replies to this topic

#1
diamond

diamond

    Newbie

  • Members
  • Pip
  • 27 posts
  • 285 thanks

Sam.2015.1080p.CRO-DIAMOND

 

 

Sam%20%282015%29.jpg

 

Please Login or Register to see this Hidden Content

Please Login or Register to see this Hidden Content

Please Login or Register to see this Hidden Content

 

 

Subtitle: English

Podnaslov : Engleski

 

Please Login or Register to see this Hidden Content

 

 

Capture.JPG

 

General
Unique ID                                : 89191213659342756289155262550308293783 (0x43199A58B89B1C345D4216C87C700C97)
Complete name                            : Sam.2015.1080p.CRO-DIAMOND.mkv
Format                                   : Matroska
Format version                           : Version 4 / Version 2
File size                                : 4.04 GiB
Duration                                 : 1h 43mn
Overall bit rate                         : 5 598 Kbps
Movie name                               : CRO  DIAMOND RIP
Encoded date                             : UTC 2016-10-11 18:10:43
Writing application                      : mkvmerge v6.7.0 ('Back to the Ground') 64bit built on Jan  9 2014 18:03:17
Writing library                          : libebml v1.3.0 + libmatroska v1.4.1

Video
ID                                       : 1
Format                                   : AVC
Format/Info                              : Advanced Video Codec
Format profile                           : [email protected]
Format settings, CABAC                   : Yes
Format settings, ReFrames                : 4 frames
Codec ID                                 : V_MPEG4/ISO/AVC
Duration                                 : 1h 43mn
Bit rate                                 : 5 103 Kbps
Width                                    : 1 916 pixels
Height                                   : 1 032 pixels
Display aspect ratio                     : 1.85:1
Frame rate mode                          : Constant
Frame rate                               : 23.976 fps
Color space                              : YUV
Chroma subsampling                       : 4:2:0
Bit depth                                : 8 bits
Scan type                                : Progressive
Bits/(Pixel*Frame)                       : 0.108
Stream size                              : 3.69 GiB (91%)
Language                                 : English
Default                                  : Yes
Forced                                   : No
Color range                              : Limited
Color primaries                          : BT.709
Transfer characteristics                 : BT.709
Matrix coefficients                      : BT.709

Audio
ID                                       : 2
Format                                   : AC-3
Format/Info                              : Audio Coding 3
Mode extension                           : CM (complete main)
Format settings, Endianness              : Big
Codec ID                                 : A_AC3
Duration                                 : 1h 43mn
Bit rate mode                            : Constant
Bit rate                                 : 384 Kbps
Channel(s)                               : 6 channels
Channel positions                        : Front: L C R, Side: L R, LFE
Sampling rate                            : 48.0 KHz
Compression mode                         : Lossy
Stream size                              : 284 MiB (7%)
Language                                 : English
Default                                  : Yes
Forced                                   : No

Text
ID                                       : 3
Format                                   : UTF-8
Codec ID                                 : S_TEXT/UTF8
Codec ID/Info                            : UTF-8 Plain Text
Language                                 : English
Default                                  : No
Forced                                   : No

Menu
00:00:00.000                             : en:1
00:08:04.609                             : en:2
00:15:57.206                             : en:3
00:20:10.292                             : en:4
00:26:03.103                             : en:5
00:32:41.751                             : en:6
00:37:13.773                             : en:7
00:42:58.492                             : en:8
00:48:29.114                             : en:9
00:53:24.492                             : en:10
00:59:33.652                             : en:11
01:07:10.859                             : en:12
01:12:48.905                             : en:13
01:20:09.595                             : en:14
01:28:49.865                             : en:15
01:32:45.767                             : en:16

 

 

 

Hidden Content
You'll be able to see the hidden content once you thank this post.


Edited by Mmelita, 16 October 2016 - 21:55.
likovi moraju biti i u hide i u code tagu


Thanked by 19 Members:
Dionvos , face10 , dejansm , jessamina55 , bonxach , Branko Djokic , mbojic , pero362 , dejanp , 1darkobg , tole321 , stjepank67 , jumanjinz , bokidina , Rand , slop , 70sandi , cloudybay62 , robi_bak



0 user(s) are reading this topic

0 members, 0 guests, 0 anonymous users