Jump to content

Dobrodošli na Balkandownload.org
Tražite domaće knjige, exyu magazine, sinhronizirane crtane filmove, PC i ostale igre, strane i domaće filmove, dokumentarce, stranu i domaću muziku, itd. ? Ne morate tražiti dalje jer sve ćete to naći kod nas, uredno postavljeno i spremno za download. Osim toga registracijom možete sudjelovati u raznim postojećim temama na forumu, otvarati nove teme, sudjelovati u chatu i još mnogo toga. Ako već imaš otvoren račun, logiraj se ovde ,a ako želiš saznati zašto smo najbolji otvori novi račun i uverite se sami :)
Photo

Blue Jay (2016)


  • Please log in to reply
No replies to this topic

#1
diamond

diamond

    Newbie

  • Members
  • Pip
  • 27 posts
  • 302 thanks

Blue.Jay.2016.1080p.CRO-DIAMOND

 

Blue%20Jay%20%282016%29.jpg

 

Please Login or Register to see this Hidden Content

Please Login or Register to see this Hidden Content

Please Login or Register to see this Hidden Content

 

 

Subtitle: English

Podnaslov : Engleski

 

Please Login or Register to see this Hidden Content

 

Capture.JPG

 

 

General
Unique ID                                : 235942722227967899571910492981670565011 (0xB180EA56FE375883C7D045DF7DE1D493)
Complete name                            : Blue.Jay.2016.1080p.CRO-DIAMOND.mkv
Format                                   : Matroska
Format version                           : Version 4 / Version 2
File size                                : 3.15 GiB
Duration                                 : 1h 20mn
Overall bit rate                         : 5 621 Kbps
Movie name                               : CRO DIAMOND 1080p
Encoded date                             : UTC 2016-10-12 14:47:54
Writing application                      : mkvmerge v7.2.0 ('On Every Street') 64bit built on Oct  7 2014 18:52:30
Writing library                          : libebml v1.3.0 + libmatroska v1.4.1
DURATION                                 : 01:16:25.379000000
NUMBER_OF_FRAMES                         : 1220
NUMBER_OF_BYTES                          : 34968
_STATISTICS_WRITING_APP                  : mkvmerge v7.2.0 ('On Every Street') 64bit built on Oct  7 2014 18:52:30
_STATISTICS_WRITING_DATE_UTC             : 2016-10-12 14:47:54
_STATISTICS_TAGS                         : BPS DURATION NUMBER_OF_FRAMES NUMBER_OF_BYTES

Video
ID                                       : 1
Format                                   : AVC
Format/Info                              : Advanced Video Codec
Format profile                           : [email protected]
Format settings, CABAC                   : Yes
Format settings, ReFrames                : 4 frames
Codec ID                                 : V_MPEG4/ISO/AVC
Duration                                 : 1h 20mn
Bit rate                                 : 5 125 Kbps
Width                                    : 1 920 pixels
Height                                   : 1 038 pixels
Display aspect ratio                     : 1.85:1
Frame rate mode                          : Constant
Frame rate                               : 23.976 fps
Color space                              : YUV
Chroma subsampling                       : 4:2:0
Bit depth                                : 8 bits
Scan type                                : Progressive
Bits/(Pixel*Frame)                       : 0.107
Stream size                              : 2.87 GiB (91%)
Title                                    : CRO DIAMOND 1080p
Language                                 : English
Default                                  : Yes
Forced                                   : No
Color range                              : Limited
Color primaries                          : BT.709
Transfer characteristics                 : BT.709
Matrix coefficients                      : BT.709

Audio
ID                                       : 2
Format                                   : AC-3
Format/Info                              : Audio Coding 3
Mode extension                           : CM (complete main)
Format settings, Endianness              : Big
Codec ID                                 : A_AC3
Duration                                 : 1h 20mn
Bit rate mode                            : Constant
Bit rate                                 : 384 Kbps
Channel(s)                               : 6 channels
Channel positions                        : Front: L C R, Side: L R, LFE
Sampling rate                            : 48.0 KHz
Compression mode                         : Lossy
Stream size                              : 220 MiB (7%)
Language                                 : English
Default                                  : Yes
Forced                                   : No

Text
ID                                       : 3
Format                                   : UTF-8
Codec ID                                 : S_TEXT/UTF8
Codec ID/Info                            : UTF-8 Plain Text
Title                                    : CC
Language                                 : English
Default                                  : No
Forced                                   : No

Menu
00:00:00.000                             : en:Jim? Amanda!
00:06:17.000                             : en:My Face Leaks
00:11:14.000                             : en:Travels With Waynie
00:15:37.000                             : en:You Seem Lost
00:22:18.000                             : en:Make Yourself at Home
00:29:06.000                             : en:The Winds of Change
00:40:42.000                             : en:How Was Your Day, Mrs. Henderson?
00:48:14.000                             : en:Leaving Room For Jesus
00:53:04.000                             : en:Greyhounds Aren\u9225\u6a9b Practical
00:57:36.000                             : en:Can I Tell You Something?
01:06:32.000                             : en:I Need You to Understand
01:16:38.000                             : en:Credits
 

 

 

Hidden Content
You'll be able to see the hidden content once you thank this post.


Edited by Mmelita, 16 October 2016 - 21:54.
likovi moraju biti i u hide i u code tagu


Thanked by 20 Members:
oldhouse , jimney , brankomajsto , face10 , mesele , jessamina55 , sk1979 , Novi korisnik , bladex452 , gordo21 , mbojic , dejanp , tole321 , jumanjinz , ofukaner , Branko101 , Vaske2000 , tarawa , pik021 , tespis



0 user(s) are reading this topic

0 members, 0 guests, 0 anonymous users