Jump to content

Dobrodošli na Balkandownload.org
Tražite domaće knjige, exyu magazine, sinhronizirane crtane filmove, PC i ostale igre, strane i domaće filmove, dokumentarce, stranu i domaću muziku, itd. ? Ne morate tražiti dalje jer sve ćete to naći kod nas, uredno postavljeno i spremno za download. Osim toga registracijom možete sudjelovati u raznim postojećim temama na forumu, otvarati nove teme, sudjelovati u chatu i još mnogo toga. Ako već imaš otvoren račun, logiraj se ovde ,a ako želiš saznati zašto smo najbolji otvori novi račun i uverite se sami :)
Photo

Blood Moon (2015)


  • Please log in to reply
No replies to this topic

#1
diamond

diamond

    Newbie

  • Members
  • Pip
  • 27 posts
  • 291 thanks

Blood.Moon.2015.1080p.CRO-DIAMOND

 

Blood%20Moon%20%282015%29.jpg

 

Please Login or Register to see this Hidden Content

Please Login or Register to see this Hidden Content

Please Login or Register to see this Hidden Content

 

 

 

Subtitle: English

Podnaslov : Engleski

 

Please Login or Register to see this Hidden Content

 

Capture.JPG

 

 

General
Unique ID                                : 10557063592283488010032419020310216755 (0x7F1376BDEC2528A37E080B383768033)
Complete name                            : Blood.Moon.2015.1080p.CRO-DIAMOND.mkv
Format                                   : Matroska
Format version                           : Version 4 / Version 2
File size                                : 2.68 GiB
Duration                                 : 1h 13mn
Overall bit rate                         : 5 227 Kbps
Movie name                               : CRO DIAMOND 1080p
Encoded date                             : UTC 2016-10-12 17:18:15
Writing application                      : mkvmerge v7.2.0 ('On Every Street') 64bit built on Oct  7 2014 18:52:30
Writing library                          : libebml v1.3.0 + libmatroska v1.4.1
DURATION                                 : 01:10:34.829000000
NUMBER_OF_FRAMES                         : 1370
NUMBER_OF_BYTES                          : 41167
_STATISTICS_WRITING_APP                  : mkvmerge v7.2.0 ('On Every Street') 64bit built on Oct  7 2014 18:52:30
_STATISTICS_WRITING_DATE_UTC             : 2016-10-12 17:18:15
_STATISTICS_TAGS                         : BPS DURATION NUMBER_OF_FRAMES NUMBER_OF_BYTES

Video
ID                                       : 1
Format                                   : AVC
Format/Info                              : Advanced Video Codec
Format profile                           : [email protected]
Format settings, CABAC                   : Yes
Format settings, ReFrames                : 4 frames
Codec ID                                 : V_MPEG4/ISO/AVC
Duration                                 : 1h 13mn
Bit rate                                 : 4 739 Kbps
Width                                    : 1 920 pixels
Height                                   : 1 080 pixels
Display aspect ratio                     : 16:9
Frame rate mode                          : Constant
Frame rate                               : 23.976 fps
Color space                              : YUV
Chroma subsampling                       : 4:2:0
Bit depth                                : 8 bits
Scan type                                : Progressive
Bits/(Pixel*Frame)                       : 0.095
Stream size                              : 2.43 GiB (91%)
Title                                    : CRO DIAMOND 1080p
Language                                 : English
Default                                  : Yes
Forced                                   : No
Color range                              : Limited
Color primaries                          : BT.709
Transfer characteristics                 : BT.709
Matrix coefficients                      : BT.709

Audio
ID                                       : 2
Format                                   : AC-3
Format/Info                              : Audio Coding 3
Mode extension                           : CM (complete main)
Format settings, Endianness              : Big
Codec ID                                 : A_AC3
Duration                                 : 1h 13mn
Bit rate mode                            : Constant
Bit rate                                 : 384 Kbps
Channel(s)                               : 6 channels
Channel positions                        : Front: L C R, Side: L R, LFE
Sampling rate                            : 48.0 KHz
Compression mode                         : Lossy
Stream size                              : 202 MiB (7%)
Language                                 : English
Default                                  : Yes
Forced                                   : No

Text
ID                                       : 3
Format                                   : UTF-8
Codec ID                                 : S_TEXT/UTF8
Codec ID/Info                            : UTF-8 Plain Text
Language                                 : English
Default                                  : No
Forced                                   : No

Menu
00:00:00.000                             : en:1
00:11:29.000                             : en:2
00:25:59.000                             : en:3
00:47:03.000                             : en:4
00:54:54.000                             : en:5
01:10:52.000                             : en:6

 

 

Hidden Content
You'll be able to see the hidden content once you thank this post.



Thanked by 13 Members:
masholina08 , andrija82 , brankomajsto , face10 , sk1979 , Fusnotar , jumanjinz , 1darkobg , hoki22 , myaleks , miki.d74 , offset , Harambaša



0 user(s) are reading this topic

0 members, 0 guests, 0 anonymous users