Jump to content

Dobrodošli na Balkandownload.org
Tražite domaće knjige, exyu magazine, sinhronizirane crtane filmove, PC i ostale igre, strane i domaće filmove, dokumentarce, stranu i domaću muziku, itd. ? Ne morate tražiti dalje jer sve ćete to naći kod nas, uredno postavljeno i spremno za download. Osim toga registracijom možete sudjelovati u raznim postojećim temama na forumu, otvarati nove teme, sudjelovati u chatu i još mnogo toga. Ako već imaš otvoren račun, logiraj se ovde ,a ako želiš saznati zašto smo najbolji otvori novi račun i uverite se sami :)
Photo

Wild Oats (2016)


  • Please log in to reply
No replies to this topic

#1
diamond

diamond

    Newbie

  • Members
  • Pip
  • 27 posts
  • 288 thanks

Wild.Oats.2016.1080p.CRO-DIAMOND

 

 

Wild%20Oats%20%282016%29.jpg

 

Please Login or Register to see this Hidden Content

Please Login or Register to see this Hidden Content

Please Login or Register to see this Hidden Content

 

 

Subtitle: Croatian , English

Podnaslov: Hrvatski, Engleski

 

 

Please Login or Register to see this Hidden Content

 

Capture.JPG

 

 

General
Unique ID                                : 3714703659553913808677212631303948207 (0x2CB6D07DD32C7AE02A23E77E38787AF)
Complete name                            : Wild.Oats.2016.1080p.CRO-DIAMOND.mkv
Format                                   : Matroska
Format version                           : Version 4 / Version 2
File size                                : 2.97 GiB
Duration                                 : 1h 26mn
Overall bit rate                         : 4 937 Kbps
Movie name                               : CRO DIAMOND 1080p
Encoded date                             : UTC 2016-10-13 22:53:06
Writing application                      : mkvmerge v7.2.0 ('On Every Street') 64bit built on Oct  7 2014 18:52:30
Writing library                          : libebml v1.3.0 + libmatroska v1.4.1
_STATISTICS_WRITING_APP                  : mkvmerge v7.2.0 ('On Every Street') 64bit built on Oct  7 2014 18:52:30
_STATISTICS_WRITING_DATE_UTC             : 2016-10-13 22:53:06
_STATISTICS_TAGS                         : BPS DURATION NUMBER_OF_FRAMES NUMBER_OF_BYTES
DURATION                                 : 01:19:46.400000000
NUMBER_OF_FRAMES                         : 1257
NUMBER_OF_BYTES                          : 49270

Video
ID                                       : 1
Format                                   : AVC
Format/Info                              : Advanced Video Codec
Format profile                           : [email protected]
Format settings, CABAC                   : Yes
Format settings, ReFrames                : 5 frames
Codec ID                                 : V_MPEG4/ISO/AVC
Duration                                 : 1h 26mn
Bit rate                                 : 4 455 Kbps
Width                                    : 1 908 pixels
Height                                   : 798 pixels
Display aspect ratio                     : 2.40:1
Frame rate mode                          : Constant
Frame rate                               : 23.976 fps
Color space                              : YUV
Chroma subsampling                       : 4:2:0
Bit depth                                : 8 bits
Scan type                                : Progressive
Bits/(Pixel*Frame)                       : 0.122
Stream size                              : 2.68 GiB (90%)
Title                                    : CRO DIAMOND 1080p
Language                                 : English
Default                                  : Yes
Forced                                   : No
Color range                              : Limited
Color primaries                          : BT.709
Transfer characteristics                 : BT.709
Matrix coefficients                      : BT.709

Audio
ID                                       : 2
Format                                   : AC-3
Format/Info                              : Audio Coding 3
Mode extension                           : CM (complete main)
Format settings, Endianness              : Big
Codec ID                                 : A_AC3
Duration                                 : 1h 26mn
Bit rate mode                            : Constant
Bit rate                                 : 384 Kbps
Channel(s)                               : 6 channels
Channel positions                        : Front: L C R, Side: L R, LFE
Sampling rate                            : 48.0 KHz
Compression mode                         : Lossy
Stream size                              : 236 MiB (8%)
Language                                 : English
Default                                  : Yes
Forced                                   : No

Text #1
ID                                       : 3
Format                                   : UTF-8
Codec ID                                 : S_TEXT/UTF8
Codec ID/Info                            : UTF-8 Plain Text
Language                                 : English
Default                                  : No
Forced                                   : No

Text #2
ID                                       : 4
Format                                   : UTF-8
Codec ID                                 : S_TEXT/UTF8
Codec ID/Info                            : UTF-8 Plain Text
Title                                    : Hrvatski
Language                                 : Croatian
Default                                  : Yes
Forced                                   : No

Menu
00:00:00.000                             : en:Chapter 1
00:03:45.934                             : en:Chapter 2
00:09:22.812                             : en:Chapter 3
00:14:58.063                             : en:Chapter 4
00:19:26.706                             : en:Chapter 5
00:24:07.528                             : en:Chapter 6
00:27:48.248                             : en:Chapter 7
00:33:19.203                             : en:Chapter 8
00:39:22.691                             : en:Chapter 9
00:45:37.691                             : en:Chapter 10
00:51:59.823                             : en:Chapter 11
00:56:20.542                             : en:Chapter 12
01:02:06.471                             : en:Chapter 13
01:08:29.145                             : en:Chapter 14
01:15:07.543                             : en:Chapter 15
01:19:01.735                             : en:Chapter 16

 

 

Hidden Content
You'll be able to see the hidden content once you thank this post.


Edited by Mmelita, 16 October 2016 - 21:54.
likovi moraju biti i u hide i u code tagu


Thanked by 24 Members:
face10 , skydivedarko , Djiko , nesho74 , ivica_ck , sk1979 , jessamina55 , bonxach , mesele , studentist , dejanp , cloudybay62 , rinolan , mbojic , tole321 , nenadarsic , cera31081972 , Biljanaiigor , Melitta , Rand , xonpe , kor , mreza , gordo21



0 user(s) are reading this topic

0 members, 0 guests, 0 anonymous users