Jump to content

Dobrodošli na Balkandownload.org
Tražite domaće knjige, exyu magazine, sinhronizirane crtane filmove, PC i ostale igre, strane i domaće filmove, dokumentarce, stranu i domaću muziku, itd. ? Ne morate tražiti dalje jer sve ćete to naći kod nas, uredno postavljeno i spremno za download. Osim toga registracijom možete sudjelovati u raznim postojećim temama na forumu, otvarati nove teme, sudjelovati u chatu i još mnogo toga. Ako već imaš otvoren račun, logiraj se ovde ,a ako želiš saznati zašto smo najbolji otvori novi račun i uverite se sami :)
Photo

Fourth Man Out (2015)


  • Please log in to reply
No replies to this topic

#1
diamond

diamond

    Newbie

  • Members
  • Pip
  • 27 posts
  • 288 thanks

Fourth.Man.Out.2015.1080p.CRO-DIAMOND

 

Fourth%20Man%20Out%20%282015%29.jpg

 

Please Login or Register to see this Hidden Content

Please Login or Register to see this Hidden Content

Please Login or Register to see this Hidden Content

 

 

Subtitle: Croatian, English

Podnaslov: Hrvatski, Engleski

 

 

www.imdb.com/title/tt3978720/

 

Capture.JPG

 

 

General
Unique ID                                : 25332386282574457385265674468932057752 (0x130ED712C9D9DAF3A679EC91D199FA98)
Complete name                            : Fourth.Man.Out.2015.1080p.CRO-DIAMOND.mkv
Format                                   : Matroska
Format version                           : Version 4 / Version 2
File size                                : 2.89 GiB
Duration                                 : 1h 26mn
Overall bit rate                         : 4 792 Kbps
Movie name                               : CRO DIAMOND 1080p
Encoded date                             : UTC 2016-10-13 23:35:49
Writing application                      : mkvmerge v7.2.0 ('On Every Street') 64bit built on Oct  7 2014 18:52:30
Writing library                          : libebml v1.3.0 + libmatroska v1.4.1
_STATISTICS_WRITING_APP                  : mkvmerge v7.2.0 ('On Every Street') 64bit built on Oct  7 2014 18:52:30
_STATISTICS_WRITING_DATE_UTC             : 2016-10-13 23:35:49
_STATISTICS_TAGS                         : BPS DURATION NUMBER_OF_FRAMES NUMBER_OF_BYTES
DURATION                                 : 01:23:24.720000000
NUMBER_OF_FRAMES                         : 933
NUMBER_OF_BYTES                          : 52485

Video
ID                                       : 1
Format                                   : AVC
Format/Info                              : Advanced Video Codec
Format profile                           : [email protected]
Format settings, CABAC                   : Yes
Format settings, ReFrames                : 5 frames
Codec ID                                 : V_MPEG4/ISO/AVC
Duration                                 : 1h 26mn
Bit rate                                 : 4 312 Kbps
Width                                    : 1 916 pixels
Height                                   : 800 pixels
Display aspect ratio                     : 2.40:1
Frame rate mode                          : Constant
Frame rate                               : 23.976 fps
Color space                              : YUV
Chroma subsampling                       : 4:2:0
Bit depth                                : 8 bits
Scan type                                : Progressive
Bits/(Pixel*Frame)                       : 0.117
Stream size                              : 2.60 GiB (90%)
Title                                    : CRO DIAMOND 1080p
Language                                 : English
Default                                  : Yes
Forced                                   : No
Color range                              : Limited
Color primaries                          : BT.709
Transfer characteristics                 : BT.709
Matrix coefficients                      : BT.709

Audio
ID                                       : 2
Format                                   : AC-3
Format/Info                              : Audio Coding 3
Mode extension                           : CM (complete main)
Format settings, Endianness              : Big
Codec ID                                 : A_AC3
Duration                                 : 1h 26mn
Bit rate mode                            : Constant
Bit rate                                 : 384 Kbps
Channel(s)                               : 6 channels
Channel positions                        : Front: L C R, Side: L R, LFE
Sampling rate                            : 48.0 KHz
Compression mode                         : Lossy
Stream size                              : 237 MiB (8%)
Language                                 : English
Default                                  : Yes
Forced                                   : No

Text #1
ID                                       : 3
Format                                   : UTF-8
Codec ID                                 : S_TEXT/UTF8
Codec ID/Info                            : UTF-8 Plain Text
Language                                 : English
Default                                  : No
Forced                                   : No

Text #2
ID                                       : 4
Format                                   : UTF-8
Codec ID                                 : S_TEXT/UTF8
Codec ID/Info                            : UTF-8 Plain Text
Title                                    : Hrvatski
Language                                 : Croatian
Default                                  : Yes
Forced                                   : No

Menu
00:00:00.000                             : en:Chapter 1
00:09:05.000                             : en:Chapter 2
00:17:41.000                             : en:Chapter 3
00:26:57.000                             : en:Chapter 4
00:35:45.000                             : en:Chapter 5
00:45:20.000                             : en:Chapter 6
00:55:09.000                             : en:Chapter 7
01:04:56.000                             : en:Chapter 8
01:14:53.000                             : en:Chapter 9
01:22:05.000                             : en:Chapter 10

 

 

Hidden Content
You'll be able to see the hidden content once you thank this post.


Edited by Mmelita, 16 October 2016 - 21:52.
likovi moraju biti i u hide i u code tagu


Thanked by 25 Members:
caniggia , face10 , sk1979 , kidatt , kyoto , Grobar , samobor , mesele , lids1973 , dadisajo , bonxach , dzaferal , pero362 , tralala12 , bblazek , robi_bak , cloudybay62 , Branko101 , dusan.kg , bratobulje , tole321 , jumanjinz , boriskoo , Sardon , wione



0 user(s) are reading this topic

0 members, 0 guests, 0 anonymous users