Jump to content

Dobrodošli na Balkandownload.org
Tražite domaće knjige, exyu magazine, sinhronizirane crtane filmove, PC i ostale igre, strane i domaće filmove, dokumentarce, stranu i domaću muziku, itd. ? Ne morate tražiti dalje jer sve ćete to naći kod nas, uredno postavljeno i spremno za download. Osim toga registracijom možete sudjelovati u raznim postojećim temama na forumu, otvarati nove teme, sudjelovati u chatu i još mnogo toga. Ako već imaš otvoren račun, logiraj se ovde ,a ako želiš saznati zašto smo najbolji otvori novi račun i uverite se sami :)
Photo

Kicks (2016)


  • Please log in to reply
No replies to this topic

#1
diamond

diamond

    Newbie

  • Members
  • Pip
  • 27 posts
  • 288 thanks

Kicks.2016.1080p.CRO-DIAMOND

 

Kicks%20%282016%29.jpg

 

Please Login or Register to see this Hidden Content

Please Login or Register to see this Hidden Content

Please Login or Register to see this Hidden Content

 

 

Subtitle: English

Podnaslov: Engleski

 

 

Please Login or Register to see this Hidden Content

 

Capture.JPG

 

 

General
Unique ID                                : 203186046969987468774515385906075974376 (0x98DC358F0E6E7CB7863C9B68B5BEBAE8)
Complete name                            : Kicks.2016.1080p.CRO-DIAMOND.mkv
Format                                   : Matroska
Format version                           : Version 4 / Version 2
File size                                : 2.99 GiB
Duration                                 : 1h 27mn
Overall bit rate                         : 4 923 Kbps
Movie name                               : CRO DIAMOND 1080p
Encoded date                             : UTC 2016-10-11 19:22:09
Writing application                      : mkvmerge v6.7.0 ('Back to the Ground') 64bit built on Jan  9 2014 18:03:17
Writing library                          : libebml v1.3.0 + libmatroska v1.4.1

Video
ID                                       : 1
Format                                   : AVC
Format/Info                              : Advanced Video Codec
Format profile                           : [email protected]
Format settings, CABAC                   : Yes
Format settings, ReFrames                : 5 frames
Format settings, GOP                     : N=1
Codec ID                                 : V_MPEG4/ISO/AVC
Duration                                 : 1h 27mn
Bit rate                                 : 4 441 Kbps
Width                                    : 1 916 pixels
Height                                   : 800 pixels
Display aspect ratio                     : 2.40:1
Frame rate mode                          : Constant
Frame rate                               : 23.976 fps
Color space                              : YUV
Chroma subsampling                       : 4:2:0
Bit depth                                : 8 bits
Scan type                                : Progressive
Bits/(Pixel*Frame)                       : 0.121
Stream size                              : 2.70 GiB (90%)
Language                                 : English
Default                                  : Yes
Forced                                   : No
Color range                              : Limited
Color primaries                          : BT.709
Transfer characteristics                 : BT.709
Matrix coefficients                      : BT.709

Audio
ID                                       : 2
Format                                   : AC-3
Format/Info                              : Audio Coding 3
Mode extension                           : CM (complete main)
Format settings, Endianness              : Big
Codec ID                                 : A_AC3
Duration                                 : 1h 27mn
Bit rate mode                            : Constant
Bit rate                                 : 384 Kbps
Channel(s)                               : 6 channels
Channel positions                        : Front: L C R, Side: L R, LFE
Sampling rate                            : 48.0 KHz
Compression mode                         : Lossy
Stream size                              : 239 MiB (8%)
Language                                 : English
Default                                  : Yes
Forced                                   : No

Text
ID                                       : 3
Format                                   : UTF-8
Codec ID                                 : S_TEXT/UTF8
Codec ID/Info                            : UTF-8 Plain Text
Language                                 : English
Default                                  : No
Forced                                   : No

Menu
00:00:00.000                             : en:1
00:04:31.187                             : en:2
00:08:06.026                             : en:3
00:11:38.863                             : en:4
00:17:09.985                             : en:5
00:22:19.586                             : en:6
00:25:38.326                             : en:7
00:29:47.867                             : en:8
00:32:24.732                             : en:9
00:38:34.059                             : en:10
00:43:59.384                             : en:11
00:49:37.889                             : en:12
00:54:51.035                             : en:13
00:58:45.185                             : en:14
01:03:02.275                             : en:15
01:05:53.904                             : en:16
01:09:36.293                             : en:17
01:11:42.377                             : en:18
01:15:41.574                             : en:19
01:21:06.315                             : en:20

 

Hidden Content
You'll be able to see the hidden content once you thank this post.


Edited by Mmelita, 16 October 2016 - 21:52.
likovi moraju biti i u hide i u code tagu


Thanked by 9 Members:
face10 , samobor , claude07 , davor42 , makiboki , Vaske2000 , renton , dule a , Rand



0 user(s) are reading this topic

0 members, 0 guests, 0 anonymous users