Jump to content

Dobrodošli na Balkandownload.org
Tražite domaće knjige, exyu magazine, sinhronizirane crtane filmove, PC i ostale igre, strane i domaće filmove, dokumentarce, stranu i domaću muziku, itd. ? Ne morate tražiti dalje jer sve ćete to naći kod nas, uredno postavljeno i spremno za download. Osim toga registracijom možete sudjelovati u raznim postojećim temama na forumu, otvarati nove teme, sudjelovati u chatu i još mnogo toga. Ako već imaš otvoren račun, logiraj se ovde ,a ako želiš saznati zašto smo najbolji otvori novi račun i uverite se sami :)
Photo

The River Thief (2016)


  • Please log in to reply
No replies to this topic

#1
diamond

diamond

    Newbie

  • Members
  • Pip
  • 27 posts
  • 284 thanks

The.River.Thief.2016.UNRATED.1080p.CRO-DIAMOND

 

The%20River%20Thief%20%282016%29.jpg

 

Please Login or Register to see this Hidden Content

Please Login or Register to see this Hidden Content

Please Login or Register to see this Hidden Content

 

TRAILER

 

 

 

Subtitle: English

Podnaslov: Engleski

 

 

www.imdb.com/title/tt5664502/

 

Capture.JPG

 

 

General
Unique ID                                : 208993774416280897615735656305833335405 (0x9D3ABCA12534844BCEB19753F9D4DA6D)
Complete name                            : The.River.Thief.2016.UNRATED.1080p.CRO-DIAMOND.mkv
Format                                   : Matroska
Format version                           : Version 4 / Version 2
File size                                : 2.97 GiB
Duration                                 : 1h 27mn
Overall bit rate                         : 4 890 Kbps
Movie name                               : CRO DIAMOND 1080p
Encoded date                             : UTC 2016-10-14 12:06:14
Writing application                      : mkvmerge v7.2.0 ('On Every Street') 64bit built on Oct  7 2014 18:52:30
Writing library                          : libebml v1.3.0 + libmatroska v1.4.1
DURATION                                 : 01:25:22.116000000
NUMBER_OF_FRAMES                         : 1104
NUMBER_OF_BYTES                          : 26176
_STATISTICS_WRITING_APP                  : mkvmerge v7.2.0 ('On Every Street') 64bit built on Oct  7 2014 18:52:30
_STATISTICS_WRITING_DATE_UTC             : 2016-10-14 12:06:14
_STATISTICS_TAGS                         : BPS DURATION NUMBER_OF_FRAMES NUMBER_OF_BYTES

Video
ID                                       : 1
Format                                   : AVC
Format/Info                              : Advanced Video Codec
Format profile                           : [email protected]
Format settings, CABAC                   : Yes
Format settings, ReFrames                : 5 frames
Codec ID                                 : V_MPEG4/ISO/AVC
Duration                                 : 1h 27mn
Bit rate                                 : 4 409 Kbps
Width                                    : 1 920 pixels
Height                                   : 812 pixels
Display aspect ratio                     : 2.35:1
Frame rate mode                          : Constant
Frame rate                               : 23.976 fps
Color space                              : YUV
Chroma subsampling                       : 4:2:0
Bit depth                                : 8 bits
Scan type                                : Progressive
Bits/(Pixel*Frame)                       : 0.118
Stream size                              : 2.68 GiB (90%)
Title                                    : CRO DIAMOND 1080p
Language                                 : English
Default                                  : Yes
Forced                                   : No
Color range                              : Limited
Color primaries                          : BT.709
Transfer characteristics                 : BT.709
Matrix coefficients                      : BT.709

Audio
ID                                       : 2
Format                                   : AC-3
Format/Info                              : Audio Coding 3
Mode extension                           : CM (complete main)
Format settings, Endianness              : Big
Codec ID                                 : A_AC3
Duration                                 : 1h 27mn
Bit rate mode                            : Constant
Bit rate                                 : 384 Kbps
Channel(s)                               : 6 channels
Channel positions                        : Front: L C R, Side: L R, LFE
Sampling rate                            : 48.0 KHz
Compression mode                         : Lossy
Stream size                              : 239 MiB (8%)
Language                                 : English
Default                                  : Yes
Forced                                   : No

Text
ID                                       : 3
Format                                   : UTF-8
Codec ID                                 : S_TEXT/UTF8
Codec ID/Info                            : UTF-8 Plain Text
Language                                 : English
Default                                  : No
Forced                                   : No

Menu
00:00:00.000                             : en:1
00:11:40.000                             : en:2
00:24:17.000                             : en:3
00:34:39.000                             : en:4
00:45:07.000                             : en:5
00:54:57.000                             : en:6
01:03:46.000                             : en:7
01:16:28.000                             : en:8
01:23:04.000                             : en:9

 

Hidden Content
You'll be able to see the hidden content once you thank this post.


Edited by Mmelita, 16 October 2016 - 21:51.
likovi moraju biti i u hide i u code tagu


Thanked by 30 Members:
Kjsdged , Dionvos , face10 , pero374 , sk1979 , samobor , skecomx , iris09 , sabosim , rinolan , Klada64 , Rand , tapson , marinko9 , Dexyplan , laki44 , yatharthahuja , mbojic , tole321 , Alki01 , gordo21 , orsono2 , ofukaner , jumanjinz , mesele , nenadarsic , fiumano , jhas , cera31081972 , Branko101



0 user(s) are reading this topic

0 members, 0 guests, 0 anonymous users