Jump to content

Dobrodošli na Balkandownload.org
Tražite domaće knjige, exyu magazine, sinhronizirane crtane filmove, PC i ostale igre, strane i domaće filmove, dokumentarce, stranu i domaću muziku, itd. ? Ne morate tražiti dalje jer sve ćete to naći kod nas, uredno postavljeno i spremno za download. Osim toga registracijom možete sudjelovati u raznim postojećim temama na forumu, otvarati nove teme, sudjelovati u chatu i još mnogo toga. Ako već imaš otvoren račun, logiraj se ovde ,a ako želiš saznati zašto smo najbolji otvori novi račun i uverite se sami :)
Photo

The Horde (2016)


  • Please log in to reply
No replies to this topic

#1
diamond

diamond

    Newbie

  • Members
  • Pip
  • 27 posts
  • 297 thanks

The.Horde.2016.1080p.CRO-DIAMOND

 

The%20Horde%20%282016%29.jpg

 

Please Login or Register to see this Hidden Content

Please Login or Register to see this Hidden Content

Please Login or Register to see this Hidden Content

 

TRAILER

 

 

 

Subtitle: English

Podnaslov: Engleski

 

 

www.imdb.com/title/tt3924782/

 

Capture.JPG

 

 

General
Unique ID                                : 58623098617203310412521524346658363822 (0x2C1A65EA45BEC8B1700E883A9DFA19AE)
Complete name                            : The.Horde.2016.1080p.CRO-DIAMOND.mkv
Format                                   : Matroska
Format version                           : Version 4 / Version 2
File size                                : 3.00 GiB
Duration                                 : 1h 27mn
Overall bit rate                         : 4 895 Kbps
Movie name                               : CRO DIAMOND 1080p
Encoded date                             : UTC 2016-10-12 12:09:06
Writing application                      : mkvmerge v7.2.0 ('On Every Street') 64bit built on Oct  7 2014 18:52:30
Writing library                          : libebml v1.3.0 + libmatroska v1.4.1
DURATION                                 : 01:25:38.533000000
NUMBER_OF_FRAMES                         : 1206
NUMBER_OF_BYTES                          : 31570
_STATISTICS_WRITING_APP                  : mkvmerge v7.2.0 ('On Every Street') 64bit built on Oct  7 2014 18:52:30
_STATISTICS_WRITING_DATE_UTC             : 2016-10-12 12:09:06
_STATISTICS_TAGS                         : BPS DURATION NUMBER_OF_FRAMES NUMBER_OF_BYTES

Video
ID                                       : 1
Format                                   : AVC
Format/Info                              : Advanced Video Codec
Format profile                           : [email protected]
Format settings, CABAC                   : Yes
Format settings, ReFrames                : 5 frames
Codec ID                                 : V_MPEG4/ISO/AVC
Duration                                 : 1h 27mn
Bit rate                                 : 4 414 Kbps
Width                                    : 1 920 pixels
Height                                   : 808 pixels
Display aspect ratio                     : 2.40:1
Frame rate mode                          : Constant
Frame rate                               : 23.976 fps
Color space                              : YUV
Chroma subsampling                       : 4:2:0
Bit depth                                : 8 bits
Scan type                                : Progressive
Bits/(Pixel*Frame)                       : 0.119
Stream size                              : 2.71 GiB (90%)
Title                                    : CRO DIAMOND 1080p
Language                                 : English
Default                                  : Yes
Forced                                   : No
Color range                              : Limited
Color primaries                          : BT.709
Transfer characteristics                 : BT.709
Matrix coefficients                      : BT.709

Audio
ID                                       : 2
Format                                   : AC-3
Format/Info                              : Audio Coding 3
Mode extension                           : CM (complete main)
Format settings, Endianness              : Big
Codec ID                                 : A_AC3
Duration                                 : 1h 27mn
Bit rate mode                            : Constant
Bit rate                                 : 384 Kbps
Channel(s)                               : 6 channels
Channel positions                        : Front: L C R, Side: L R, LFE
Sampling rate                            : 48.0 KHz
Compression mode                         : Lossy
Stream size                              : 241 MiB (8%)
Language                                 : English
Default                                  : Yes
Forced                                   : No

Text
ID                                       : 3
Format                                   : UTF-8
Codec ID                                 : S_TEXT/UTF8
Codec ID/Info                            : UTF-8 Plain Text
Language                                 : English
Default                                  : No
Forced                                   : No

Menu
00:00:00.000                             : en:Opening Sequence
00:05:25.000                             : en:Class Trip
00:10:00.000                             : en:It's A Gun
00:14:05.000                             : en:Riley's Touching Me!
00:19:21.000                             : en:Bar Brawl
00:23:49.000                             : en:Setting Up Camp
00:28:01.000                             : en:Artful Photography
00:33:40.000                             : en:The Great Outdoors
00:39:53.000                             : en:Spoils of War
00:45:39.000                             : en:My Favourite Meat
00:53:41.000                             : en:Wake Up
00:59:43.000                             : en:Hunting
01:06:21.000                             : en:No More
01:11:52.000                             : en:Couldn't Go Away
01:16:52.000                             : en:Call The Police
01:24:44.000                             : en:End Credits

 

Hidden Content
You'll be able to see the hidden content once you thank this post.


Edited by Mmelita, 16 October 2016 - 21:51.
likovi moraju biti i u hide i u code tagu


Thanked by 22 Members:
rngrd1312 , zjosic , face10 , hemulen , Annonymus , bbking , samobor , igicalepotica1 , Aleksandar Dijana , ivanm83 , marinnd , lebowski , pik021 , Master_ls , buckobass , ptadeu , offset , Omegary , Vaske2000 , lakiyu , jhas , pingeponge



0 user(s) are reading this topic

0 members, 0 guests, 0 anonymous users