Jump to content

Dobrodošli na Balkandownload.org
Tražite domaće knjige, exyu magazine, sinhronizirane crtane filmove, PC i ostale igre, strane i domaće filmove, dokumentarce, stranu i domaću muziku, itd. ? Ne morate tražiti dalje jer sve ćete to naći kod nas, uredno postavljeno i spremno za download. Osim toga registracijom možete sudjelovati u raznim postojećim temama na forumu, otvarati nove teme, sudjelovati u chatu i još mnogo toga. Ako već imaš otvoren račun, logiraj se ovde ,a ako želiš saznati zašto smo najbolji otvori novi račun i uverite se sami :)
Photo

Ana Maria in Novela Land (2015)


  • Please log in to reply
No replies to this topic

#1
diamond

diamond

    Newbie

  • Members
  • Pip
  • 27 posts
  • 297 thanks

Ana.Maria.in.Novela.Land.2015.1080p.CRO-DIAMOND

 

Ana%20Maria%20in%20Novela%20Land%20%2820

 

Please Login or Register to see this Hidden Content

Please Login or Register to see this Hidden Content

Please Login or Register to see this Hidden Content

 

TRAILER

 

 

 

Subtitle: English

Podnaslovi: Engleski

 

 

www.imdb.com/title/tt4174526/

 

Capture.JPG

 

 

General
Unique ID                                : 234234554578843159525936581124813681843 (0xB037EF2C254D13FA8EBED89D284EF4B3)
Complete name                            : Ana.Maria.in.Novela.Land.2015.1080p.CRO-DIAMOND.mkv
Format                                   : Matroska
Format version                           : Version 4 / Version 2
File size                                : 3.46 GiB
Duration                                 : 1h 33mn
Overall bit rate                         : 5 284 Kbps
Movie name                               : CRO DIAMOND 1080p
Encoded date                             : UTC 2016-10-15 16:25:42
Writing application                      : mkvmerge v7.2.0 ('On Every Street') 64bit built on Oct  7 2014 18:52:30
Writing library                          : libebml v1.3.0 + libmatroska v1.4.1
DURATION                                 : 01:32:37.251000000
NUMBER_OF_FRAMES                         : 1270
NUMBER_OF_BYTES                          : 45097
_STATISTICS_WRITING_APP                  : mkvmerge v7.2.0 ('On Every Street') 64bit built on Oct  7 2014 18:52:30
_STATISTICS_WRITING_DATE_UTC             : 2016-10-15 16:25:42
_STATISTICS_TAGS                         : BPS DURATION NUMBER_OF_FRAMES NUMBER_OF_BYTES

Video
ID                                       : 1
Format                                   : AVC
Format/Info                              : Advanced Video Codec
Format profile                           : [email protected]
Format settings, CABAC                   : Yes
Format settings, ReFrames                : 4 frames
Codec ID                                 : V_MPEG4/ISO/AVC
Duration                                 : 1h 33mn
Bit rate                                 : 4 795 Kbps
Width                                    : 1 916 pixels
Height                                   : 1 072 pixels
Display aspect ratio                     : 16:9
Frame rate mode                          : Constant
Frame rate                               : 23.976 fps
Color space                              : YUV
Chroma subsampling                       : 4:2:0
Bit depth                                : 8 bits
Scan type                                : Progressive
Bits/(Pixel*Frame)                       : 0.097
Stream size                              : 3.14 GiB (91%)
Title                                    : CRO DIAMOND 1080p
Language                                 : English
Default                                  : Yes
Forced                                   : No
Color range                              : Limited
Color primaries                          : BT.709
Transfer characteristics                 : BT.709
Matrix coefficients                      : BT.709

Audio
ID                                       : 2
Format                                   : AC-3
Format/Info                              : Audio Coding 3
Mode extension                           : CM (complete main)
Format settings, Endianness              : Big
Codec ID                                 : A_AC3
Duration                                 : 1h 33mn
Bit rate mode                            : Constant
Bit rate                                 : 384 Kbps
Channel(s)                               : 6 channels
Channel positions                        : Front: L C R, Side: L R, LFE
Sampling rate                            : 48.0 KHz
Compression mode                         : Lossy
Stream size                              : 257 MiB (7%)
Language                                 : English
Default                                  : Yes
Forced                                   : No

Text
ID                                       : 3
Format                                   : UTF-8
Codec ID                                 : S_TEXT/UTF8
Codec ID/Info                            : UTF-8 Plain Text
Language                                 : English
Default                                  : No
Forced                                   : No

Menu
00:00:00.000                             : en:1
00:04:11.000                             : en:2
00:10:53.000                             : en:3
00:18:01.000                             : en:4
00:24:52.000                             : en:5
00:32:48.000                             : en:6
00:41:53.000                             : en:7
00:44:53.000                             : en:8
00:51:44.000                             : en:9
00:59:03.000                             : en:10
01:03:36.000                             : en:11
01:10:57.000                             : en:12
01:14:14.000                             : en:13
01:19:09.000                             : en:14
01:22:13.000                             : en:15
01:27:12.000                             : en:16

 

Hidden Content
You'll be able to see the hidden content once you thank this post.


Edited by Mmelita, 16 October 2016 - 21:50.
likovi moraju biti i u hide i u code tagu


Thanked by 14 Members:
jessamina55 , sico8a , Lncela , kusko , face10 , Omegary , miki.d74 , jumanjinz , JekaG , blatruc82 , tole321 , papaya , wione , DoDo41



0 user(s) are reading this topic

0 members, 0 guests, 0 anonymous users