Jump to content

Dobrodošli na Balkandownload.org
Tražite domaće knjige, exyu magazine, sinhronizirane crtane filmove, PC i ostale igre, strane i domaće filmove, dokumentarce, stranu i domaću muziku, itd. ? Ne morate tražiti dalje jer sve ćete to naći kod nas, uredno postavljeno i spremno za download. Osim toga registracijom možete sudjelovati u raznim postojećim temama na forumu, otvarati nove teme, sudjelovati u chatu i još mnogo toga. Ako već imaš otvoren račun, logiraj se ovde ,a ako želiš saznati zašto smo najbolji otvori novi račun i uverite se sami :)
Photo

Y Syrcas (2013) AKA The Circus

- - - - - 2013 uk

No replies to this topic

#1
LEMONZOO

LEMONZOO

    Advanced Member

  • VIP
  • PipPipPip
  • 961 posts
  • 12339 thanks
  • LocationGavran Mahala

Y Syrcas 2013 [Eng] HDTVRip

y_syrcas_2013ewyox.jpg

Please Login or Register to see this Hidden Content


Y Syrcas (The Circus) is set in Victorian Cardiganshire. An 18 year-old Sara lives under the overbearing rule of her father - the respected local minister, Tomos Ifans. When the nomadic 'Circus Supremo' strolls into town with an elephant in tow, it shakes up the withdrawn community and throws Sara into conflict with her father, who wants the circus and their 'demons' banished from his town.

General
Complete name               : Y Syrcas 2013 [Eng] HDTVRip.avi
Format                      : AVI
Format/Info                 : Audio Video Interleave
File size                   : 1.33 GiB
Duration                    : 1h 33mn
Overall bit rate            : 2 046 Kbps
Writing application         : VirtualDubMod 1.5.10.2 (build 2542/release)
Writing library             : VirtualDubMod build 2542/release

Video
ID                          : 0
Format                      : MPEG-4 Visual
Format profile              : Advanced [email protected]
Format settings, BVOP       : 1
Format settings, QPel       : No
Format settings, GMC        : No warppoints
Format settings, Matrix     : Default (MPEG)
Muxing mode                 : Packed bitstream
Codec ID                    : XVID
Codec ID/Hint               : XviD
Duration                    : 1h 33mn
Bit rate                    : 1 652 Kbps
Width                       : 720 pixels
Height                      : 304 pixels
Display aspect ratio        : 2.35:1
Frame rate                  : 25.000 fps
Color space                 : YUV
Chroma subsampling          : 4:2:0
Bit depth                   : 8 bits
Scan type                   : Progressive
Compression mode            : Lossy
Bits/(Pixel*Frame)          : 0.302
Stream size                 : 1.08 GiB (81%)
Writing library             : XviD 1.2.1 (UTC 2008-12-04)

Audio
ID                          : 1
Format                      : AC-3
Format/Info                 : Audio Coding 3
Mode extension              : CM (complete main)
Format settings, Endianness : Big
Codec ID                    : 2000
Duration                    : 1h 33mn
Bit rate mode               : Constant
Bit rate                    : 384 Kbps
Channel(s)                  : 6 channels
Channel positions           : Front: L C R, Side: L R, LFE
Sampling rate               : 48.0 KHz
Bit depth                   : 16 bits
Compression mode            : Lossy
Stream size                 : 256 MiB (19%)
Alignment                   : Split accross interleaves
Interleave, duration        : 40 ms (1.00 video frame)
Interleave, preload duratio : 500 ms



ysyrcas2013enghdtvripujyut.jpg

ysyrcas2013enghdtvripcybmp.jpg

ysyrcas2013enghdtvripb1bf6.jpg

ysyrcas2013enghdtvrip4szrw.jpg


Hidden Content
You'll be able to see the hidden content once you thank this post.


Titl:

Please Login or Register to see this Hidden Content



Thanked by 23 Members:
milicadacha , milicadachafilip , wickeywateya26 , normal , Cyrano , bojan.dornik , branij , liquid , sibiibis , anelkos , noel7 , tomo007 , Zelenac1 , kumpanjo , takmicar , milosst , laki44 , mec , offset , goranruzicic , lgoljevacki , hobit11 , GRT7




Also tagged with one or more of these keywords: 2013, uk

0 user(s) are reading this topic

0 members, 0 guests, 0 anonymous users