Jump to content

Dobrodošli na Balkandownload.org
Tražite domaće knjige, exyu magazine, sinhronizirane crtane filmove, PC i ostale igre, strane i domaće filmove, dokumentarce, stranu i domaću muziku, itd. ? Ne morate tražiti dalje jer sve ćete to naći kod nas, uredno postavljeno i spremno za download. Osim toga registracijom možete sudjelovati u raznim postojećim temama na forumu, otvarati nove teme, sudjelovati u chatu i još mnogo toga. Ako već imaš otvoren račun, logiraj se ovde ,a ako želiš saznati zašto smo najbolji otvori novi račun i uverite se sami :)
Photo

La ragazza con la pistola (1968) AKA The Girl with a Pistol

- - - - - 1968 Italija talijanski engleski komedija drama romantika Monica Vitti Stanley Baker Mario Monicelli

No replies to this topic

#1
LEMONZOO

LEMONZOO

    Advanced Member

  • VIP
  • PipPipPip
  • 942 posts
  • 11023 thanks
  • LocationGavran Mahala

La ragazza con la pistola (1968) HDTV

la_ragazza_con_la_pis4ej1v.jpg

Please Login or Register to see this Hidden Content


A Sicilian woman, "dishonored" by her lover, goes to England with a pistol intending to murder him.


General
Complete name               : La ragazza con la pistola (1968) HDTV.avi
Format                      : AVI
Format/Info                 : Audio Video Interleave
File size                   : 726 MiB
Duration                    : 1h 37mn
Overall bit rate            : 1 040 Kbps
Writing application         : Lavf51.12.1

Video
ID                          : 0
Format                      : xvid
Codec ID                    : xvid
Duration                    : 1h 37mn
Bit rate                    : 900 Kbps
Width                       : 720 pixels
Height                      : 408 pixels
Display aspect ratio        : 16:9
Frame rate                  : 25.000 fps
Bits/(Pixel*Frame)          : 0.123
Stream size                 : 628 MiB (87%)

Audio
ID                          : 1
Format                      : MPEG Audio
Format version              : Version 1
Format profile              : Layer 3
Mode                        : Joint stereo
Mode extension              : MS Stereo
Codec ID                    : 55
Codec ID/Hint               : MP3
Duration                    : 1h 37mn
Bit rate mode               : Constant
Bit rate                    : 128 Kbps
Channel(s)                  : 2 channels
Sampling rate               : 44.1 KHz
Compression mode            : Lossy
Stream size                 : 89.3 MiB (12%)
Alignment                   : Aligned on interleaves
Interleave, duration        : 26 ms (0.65 video frame)




laragazzaconlapistolabqkc7.jpg

laragazzaconlapistolamvk8t.jpg

laragazzaconlapistolanfjs3.jpg

laragazzaconlapistola5ukf2.jpg

Hidden Content
You'll be able to see the hidden content once you thank this post.



Titl:

Please Login or Register to see this Hidden Content



Thanked by 20 Members:
sanjaradojevic , Svilesis , rakia1960 , OgiDR , bluesman101 , Swordsman , wickeywateya26 , volfi , Gedza90 , nesom , netrebamime , marijaiztok , jakabeba , Zelenac1 , Tobacco Road , jadranovo , offset , asceric , kosingas , darkman3891




Also tagged with one or more of these keywords: 1968, Italija, talijanski, engleski, komedija, drama, romantika, Monica Vitti, Stanley Baker, Mario Monicelli

0 user(s) are reading this topic

0 members, 0 guests, 0 anonymous users