Jump to content

Dobrodošli na Balkandownload.org
Tražite domaće knjige, exyu magazine, sinhronizirane crtane filmove, PC i ostale igre, strane i domaće filmove, dokumentarce, stranu i domaću muziku, itd. ? Ne morate tražiti dalje jer sve ćete to naći kod nas, uredno postavljeno i spremno za download. Osim toga registracijom možete sudjelovati u raznim postojećim temama na forumu, otvarati nove teme, sudjelovati u chatu i još mnogo toga. Ako već imaš otvoren račun, logiraj se ovde ,a ako želiš saznati zašto smo najbolji otvori novi račun i uverite se sami :)

A Wind at My Back Christmas (2001)

- - - - - 2001 kanada božić

No replies to this topic



    Advanced Member

  • VIP
  • PipPipPip
  • 831 posts
  • 9213 thanks
  • LocationGavran Mahala

A Wind at My Back Christmas [2001] DVDrip


Please Login or Register to see this Hidden Content

In the approach to Christmas 1938, much is happening in the lives of the Bailey and Sutton families of New Bedford. Grace Mainwairing and her mother - the Bailey family matriarch, May Bailey - are in Europe collecting the remains of Grace's husband, Van, who was killed in the war in Spain. Hub Bailey is in the seminary at the University of Toronto. Back in New Bedford, Hub's mother, Honey Sutton, is following in her son's footsteps and is also a University of Toronto student. She is taking courses by correspondence although she would rather take classes in person in Toronto. Honey's husband, Max, has to take over many of the household duties because of Honey's busy schedule, this in addition to his regular work as the school's principal and the town mayor. This leaves no time for his passion, writing. Even this year's Christmas pageant, which is being directed by May's daughter-in-law, Toppy Bailey, was written by science teacher, Jim Flett. Jim's lack of play writing skills is ...
This movie is closure story for famous TV Series (tt0115420).

Complete name               : A Wind at My Back Christmas.avi
Format                      : AVI
Format/Info                 : Audio Video Interleave
File size                   : 718 MiB
Duration                    : 1h 30mn
Overall bit rate            : 1 111 Kbps

ID                          : 0
Format                      : MPEG-4 Visual
Format profile              : Advanced [email protected]
Format settings, BVOP       : 2
Format settings, QPel       : No
Format settings, GMC        : No warppoints
Format settings, Matrix     : Default (H.263)
Muxing mode                 : Packed bitstream
Codec ID                    : XVID
Codec ID/Hint               : XviD
Duration                    : 1h 30mn
Bit rate                    : 910 Kbps
Width                       : 720 pixels
Height                      : 480 pixels
Display aspect ratio        : 3:2
Frame rate                  : 25.000 fps
Standard                    : NTSC
Color space                 : YUV
Chroma subsampling          : 4:2:0
Bit depth                   : 8 bits
Scan type                   : Progressive
Compression mode            : Lossy
Bits/(Pixel*Frame)          : 0.105
Stream size                 : 587 MiB (82%)
Writing library             : XviD 1.2.1 (UTC 2008-12-04)

ID                          : 1
Format                      : MPEG Audio
Format version              : Version 1
Format profile              : Layer 3
Mode                        : Joint stereo
Emphasis                    : 50/15ms
Codec ID                    : 55
Codec ID/Hint               : MP3
Duration                    : 1h 30mn
Bit rate mode               : Constant
Bit rate                    : 192 Kbps
Channel(s)                  : 2 channels
Sampling rate               : 44.1 KHz
Compression mode            : Lossy
Delay relative to video     : 26ms
Stream size                 : 124 MiB (17%)
Alignment                   : Split accross interleaves
Interleave, duration        : 40 ms (1.00 video frame)
Title                       : Audio Stream





Hidden Content
You'll be able to see the hidden content once you thank this post.


Please Login or Register to see this Hidden Content

Thanked by 25 Members:
Svilesis , anelkos , kina23 , hajdukjovance , zlatko.bosnar , atmarex , ZeljkoBona , wickeywateya26 , milicadachafilip , gdjastopalo , ELED , ninobeni , barra64 , gradimirs , danijelalenka , Ivan59 , canemk , fides , Zelenac1 , diodor , josip44vk , mijo.beslic , jaske , bumbo0123 , goranruzicic

Also tagged with one or more of these keywords: 2001, kanada, božić

0 user(s) are reading this topic

0 members, 0 guests, 0 anonymous users