Jump to content

Dobrodošli na Balkandownload.org
Tražite domaće knjige, exyu magazine, sinhronizirane crtane filmove, PC i ostale igre, strane i domaće filmove, dokumentarce, stranu i domaću muziku, itd. ? Ne morate tražiti dalje jer sve ćete to naći kod nas, uredno postavljeno i spremno za download. Osim toga registracijom možete sudjelovati u raznim postojećim temama na forumu, otvarati nove teme, sudjelovati u chatu i još mnogo toga. Ako već imaš otvoren račun, logiraj se ovde ,a ako želiš saznati zašto smo najbolji otvori novi račun i uverite se sami :)
Photo

The Man with the Twisted Lip (1921)

- - - - - 1921 Sherlock Holmes uk

No replies to this topic

#1
LEMONZOO

LEMONZOO

    Bronze Member

  • VIP
  • PipPipPipPip
  • 1,025 posts
  • 17010 thanks
  • LocationGavran Mahala

Sherlock.Holmes.The.Man.With.the.Twisted.Lip.1921.SILENT.VHSRip.AVC-ES

sherlock.holmes.the.m5lk3s.jpg
 

Please Login or Register to see this Hidden Content

Nellie St. Clair becomes distraught over the disappearance of Neville, her respectable, middle-class husband last seen in the second story window of a seedy waterfront dive and seeks out Holmes and Watson for help. When Holmes and the police arrive, they find a filthy beggar, not St. Clair, in the building which also serves as an opium den. The missing man's clothes are found in the room along with his son's broken toy and a bloody fingerprint on the window sill. Holmes initially suspects foul play especially after St. Clair's coat, weighted down with with copper coins, is found on a nearby riverbank. However, after the Great Detective interviews the beggar in his cell, he is able to solve the case and reunite Mrs. St. Clair with her husband.

 

 

General
Complete name               : Sherlock.Holmes.The.Man.With.the.Twisted.Lip.1921.SILENT.VHSRip.AVC-ES.mp4
Format                      : MPEG-4
Format profile              : Base Media
Codec ID                    : isom
File size                   : 251 MiB
Duration                    : 21mn 27s
Overall bit rate            : 1 638 Kbps
Writing application         : Lavf56.25.101

Video
ID                          : 1
Format                      : AVC
Format/Info                 : Advanced Video Codec
Format profile              : [email protected]
Format settings, CABAC      : Yes
Format settings, ReFrames   : 4 frames
Codec ID                    : avc1
Codec ID/Info               : Advanced Video Coding
Duration                    : 21mn 27s
Bit rate                    : 1 500 Kbps
Width                       : 640 pixels
Height                      : 480 pixels
Display aspect ratio        : 4:3
Frame rate mode             : Variable
Frame rate                  : 29.970 fps
Minimum frame rate          : 2.498 fps
Maximum frame rate          : 29.970 fps
Color space                 : YUV
Chroma subsampling          : 4:2:0
Bit depth                   : 8 bits
Scan type                   : Progressive
Bits/(Pixel*Frame)          : 0.163
Stream size                 : 230 MiB (92%)
Writing library             : x264 core 142 r2491 24e4fed
Encoding settings           : cabac=1 / ref=3 / deblock=1:0:0 / analyse=0x3:0x133 / me=hex / subme=7 / psy=1 / psy_rd=1.00:0.00 / mixed_ref=1 / me_range=16 / chroma_me=1 / trellis=1 / 8x8dct=1 / cqm=0 / deadzone=21,11 / fast_pskip=1 / chroma_qp_offset=-2 / threads=6 / lookahead_threads=1 / sliced_threads=0 / nr=0 / decimate=1 / interlaced=0 / bluray_compat=0 / constrained_intra=0 / bframes=3 / b_pyramid=2 / b_adapt=1 / b_bias=0 / direct=1 / weightb=1 / open_gop=0 / weightp=2 / keyint=250 / keyint_min=25 / scenecut=40 / intra_refresh=0 / rc_lookahead=40 / rc=2pass / mbtree=1 / bitrate=1500 / ratetol=1.0 / qcomp=0.60 / qpmin=10 / qpmax=51 / qpstep=4 / cplxblur=20.0 / qblur=0.5 / ip_ratio=1.40 / aq=1:1.00

Audio
ID                          : 2
Format                      : AAC
Format/Info                 : Advanced Audio Codec
Format profile              : LC
Codec ID                    : 40
Duration                    : 21mn 27s
Bit rate mode               : Constant
Bit rate                    : 128 Kbps
Channel(s)                  : 2 channels
Channel positions           : Front: L R
Sampling rate               : 48.0 KHz
Compression mode            : Lossy
Stream size                 : 19.6 MiB (8%)
Language                    : unk


sherlock.holmes.the.mx8kds.jpg

sherlock.holmes.the.mwlkwx.jpg

sherlock.holmes.the.mh4kal.jpg


Hidden Content
You'll be able to see the hidden content once you thank this post.



Titl:

Please Login or Register to see this Hidden Content



Thanked by 7 Members:
pedja789 , eagle_pa , pitac , millsqq , wickeywateya26 , lajavko , kosingas




Also tagged with one or more of these keywords: 1921, Sherlock Holmes, uk

0 user(s) are reading this topic

0 members, 0 guests, 0 anonymous users