Jump to content

Dobrodošli na Balkandownload.org
Tražite domaće knjige, exyu magazine, sinhronizirane crtane filmove, PC i ostale igre, strane i domaće filmove, dokumentarce, stranu i domaću muziku, itd. ? Ne morate tražiti dalje jer sve ćete to naći kod nas, uredno postavljeno i spremno za download. Osim toga registracijom možete sudjelovati u raznim postojećim temama na forumu, otvarati nove teme, sudjelovati u chatu i još mnogo toga. Ako već imaš otvoren račun, logiraj se ovde ,a ako želiš saznati zašto smo najbolji otvori novi račun i uverite se sami :)
Photo

Go West (2005)


3 replies to this topic

#1
darko-joca

darko-joca

    Advanced Member

  • Members
  • PipPipPip
  • 107 posts
  • 8742 thanks
  • LocationTokyo

Go West (2005)


Ovo je zemlja gde se u svemu kasni. Samo se umire pre vremena.


Thanked by 104 Members:

#2
nikolakralj100

nikolakralj100

    Advanced Member

  • Members
  • PipPipPip
  • 346 posts
  • 20513 thanks

DVDr

 

LJjkyas.jpg

 

Hidden Content
You'll be able to see the hidden content once you thank this post.


Thanked by 77 Members:

#3
Wolf 13

Wolf 13

    Advanced Member

  • Members
  • PipPipPip
  • 426 posts
  • 33406 thanks
Go West (2005) DVDrip E-AC3 x264 by Wolf
(MKV)
 
DZHvKiP.jpg
 

Please Login or Register to see this Hidden Content

 

General
Unique ID                   : 125634985822109018755197225739614312039 (0x5E846B0A49F715D9E9DE4C26F6725667)
Complete name               : Go West (2005) DVDrip E-AC3 x264 by Wolf.mkv
Format                      : Matroska
Format version              : Version 4 / Version 2
File size                   : 1.18 GiB
Duration                    : 1 h 36 min
Overall bit rate            : 1 758 kb/s
Encoded date                : UTC 2018-09-18 16:46:32 / UTC 2018-09-18T14:24:59Z
Writing application         : mkvmerge v26.0.0 ('In The Game') 64-bit
Writing library             : libebml v1.3.6 + libmatroska v1.4.9 / Lavf57.7.2
 
Video
ID                          : 1
Format                      : AVC
Format/Info                 : Advanced Video Codec
Format profile              : High [email protected]
Format settings             : CABAC / 5 Ref Frames
Format settings, CABAC      : Yes
Format settings, ReFrames   : 5 frames
Codec ID                    : V_MPEG4/ISO/AVC
Duration                    : 1 h 36 min
Bit rate                    : 1 500 kb/s
Width                       : 698 pixels
Height                      : 430 pixels
Display aspect ratio        : 1.730
Original display aspect rat : 1.731
Frame rate mode             : Constant
Frame rate                  : 25.000 FPS
Color space                 : YUV
Chroma subsampling          : 4:2:0
Bit depth                   : 10 bits
Scan type                   : Progressive
Bits/(Pixel*Frame)          : 0.200
Stream size                 : 1 011 MiB (83%)
Title                       : Go West (2005)
Writing library             : x264 core 155 r2901 7d0ff22
Encoding settings           : cabac=1 / ref=5 / deblock=1:-1:-1 / analyse=0x3:0x113 / me=hex / subme=8 / psy=1 / psy_rd=1.00:0.15 / mixed_ref=1 / me_range=16 / chroma_me=1 / trellis=2 / 8x8dct=1 / cqm=0 / deadzone=21,11 / fast_pskip=1 / chroma_qp_offset=-3 / threads=6 / lookahead_threads=1 / sliced_threads=0 / nr=0 / decimate=1 / interlaced=0 / bluray_compat=0 / constrained_intra=0 / bframes=3 / b_pyramid=2 / b_adapt=1 / b_bias=0 / direct=3 / weightb=1 / open_gop=0 / weightp=2 / keyint=250 / keyint_min=25 / scenecut=40 / intra_refresh=0 / rc_lookahead=50 / rc=2pass / mbtree=1 / bitrate=1500 / ratetol=1.0 / qcomp=0.60 / qpmin=0 / qpmax=81 / qpstep=4 / cplxblur=20.0 / qblur=0.5 / vbv_maxrate=150000 / vbv_bufsize=187500 / nal_hrd=none / filler=0 / ip_ratio=1.40 / aq=1:1.00
Language                    : Bosnian
Default                     : Yes
Forced                      : No
Color range                 : Limited
Color primaries             : BT.601 PAL
Transfer characteristics    : BT.709
Matrix coefficients         : BT.601
Statistics Tags Issue       : mkvmerge v26.0.0 ('In The Game') 64-bit 2018-09-18 16:46:32 / mkvmerge v26.0.0 ('In The Game') 64-bit 2018-09-18 16:46:32 / UTC 2018-09-18T14:24:59Z
FromStats_BitRate           : 1500044
FromStats_Duration          : 01:36:23.000000000
FromStats_FrameCount        : 144575
FromStats_StreamSize        : 1084344357
 
Audio
ID                          : 2
Format                      : E-AC-3
Format/Info                 : Enhanced Audio Coding 3
Codec ID                    : A_EAC3
Duration                    : 1 h 36 min
Bit rate mode               : Constant
Bit rate                    : 256 kb/s
Channel(s)                  : 6 channels
Channel positions           : Front: L C R, Side: L R, LFE
Sampling rate               : 48.0 kHz
Frame rate                  : 187.500 FPS (256 SPF)
Compression mode            : Lossy
Delay relative to video     : -21 ms
Stream size                 : 176 MiB (15%)
Title                       : Go West (2005)
Language                    : Bosnian
Service kind                : Complete Main
Default                     : Yes
Forced                      : No
Statistics Tags Issue       : mkvmerge v26.0.0 ('In The Game') 64-bit 2018-09-18 16:46:32 / mkvmerge v26.0.0 ('In The Game') 64-bit 2018-09-18 16:46:32 / UTC 2018-09-18T14:24:59Z
FromStats_BitRate           : 256000
FromStats_Duration          : 01:36:22.976000000
FromStats_FrameCount        : 180718
FromStats_StreamSize        : 185055232
 
Text
ID                          : 3
Format                      : UTF-8
Codec ID                    : S_TEXT/UTF8
Codec ID/Info               : UTF-8 Plain Text
Title                       : Go West (2005)
Language                    : Croatian
Default                     : Yes
Forced                      : No
Statistics Tags Issue       : mkvmerge v26.0.0 ('In The Game') 64-bit 2018-09-18 16:46:32 / mkvmerge v26.0.0 ('In The Game') 64-bit 2018-09-18 16:46:32 / UTC 2018-09-18T14:24:59Z
FromStats_BitRate           : 15
FromStats_Duration          : 00:02:40.117000000
FromStats_FrameCount        : 10
FromStats_StreamSize        : 312
 
k2aTdzy.png
Hidden Content
You'll be able to see the hidden content once you thank this post.
 
DcAKuJ8.png
waFWD7E.jpg


Thanked by 66 Members:
baraba , ajdinovski , Verdeja , lilke , mcyoka007 , peropero , alexxxxa , grunfic , aleksacv , Jokso , Alamo74 , Auto Plus , fritz200300 , Victor87 , icaleptir , chefko , vladimir sramka , dadisajo , kecy , rafael13 , zoki71 , toco222 , maruj , vesnapedja , MaliIgicGregor , Heshan , bproblem , Mile72 , Dalmatiatrekking , plazmatik , anelkos , danijeladanijel , mercury99 , nn007 , jovicai , kockari , Jackie Chan , nm2015 , batarela , nixonns , Rand , callipso , zoranko1223 , kapetanmiki , zoltan , jumanjinz , cila , opetopet , mesele , danep , Cocco Bill , zagortnt , Franci , Reiner , BobbyPeruAd , ed gain , gringo74 , Vronsky , denimiko1 , gemba , rusko , damblldorr , Miki_Kiki_Riki , Smajo , beograd1960' , Zelenac1

#4
Biotloneta

Biotloneta

    Bronze Member

  • Moderator
  • PipPipPipPip
  • 1,403 posts
  • 64533 thanks
  • LocationRobija
Go West (2005)
 
go_west_cover.jpg
 

Please Login or Register to see this Hidden Content

 

Opis: Film je izazvao jake negativne reakcije, među kojima je bilo i pretnji smrću upućenih reditelju, još pre nego što je prikazan.

Kenan (Mario Drmać) i Milan (Tarik Filipović) žive zajedno u Sarajevu u tajnoj homoseksualnoj vezi. Po izbijanju rata rešavaju da pobegnu iz grada. Da bi Kenan bezbedno prošao pored Srba, mora da se preobuče i predstavlja kao Milanova žena. Odlaze u Milanovo selo u istočnoj Bosni, koje je čisto srpsko, gde Kenan nastavlja da se predstavlja kao Milena. Jedini koji zna njihovu tajnu je Milanov prijatelj Lunjo, koji treba da im pomogne da pobegnu. Milan je, međutim, regrutovan u srpsku vojsku i mora da ostavi Milenu samu u selu. Njenu tajnu slučajno otkriva Ranka (Mirjana Karanović), koja počinje da ga zavodi i baca prokletstvo na Milana, kako se ne bi vratio živ i odveo Kenana.
 
Uloge:
Mario Drmac ... Kenan
Tarik Filipovic ... Milan
Rade Serbedzija ... Ljubo
Mirjana Karanovic ... Ranka
Haris Burina ... Lunjo
Jeanne Moreau ... Novinar
Nermin Tulic ... Pop Nemanja
Almedin Leleta ... Alen
Almir Kurt ... Drago
Milan Pavlovic ... Milo
Orijana Kuncic ... Posilna
Mirsad Zulic ... Napadac
Mihajlo Mrvaljevic ... Anto (as Miso Mrvaljevic)
Selma Muhedinovic ... Marija
Rade Colovic ... Razvodnik
Amina Begovic ... Zena ubijenog muza
Suada Ahmetasevic ... Zena II
Vanessa Glodjo ... Zena u vozu (as Vanesa Glodjo)
Ahmed Svrakic ... Komandant na konju
Mirza Tanovic ... Policajac
Alija Agincic ... Cetnik na pointu
Aleksandar Seksan ... Cetnik na pointu
Miraj Grbic ... Cetnik na gliseru
Ivana Perkunic ... Prostitutka (as Ivana Perkunjic)
Enes Zlatar ... Orkestar
Igor Camo ... Orkestar
Dragan Rokvic ... Orkestar
Dejan Ostojic ... Orkestar
Tanja Smoje ... Djevojka na gliseru
Lana Baric ... Djevojka na gliseru
Ema Smajic ... Djevojcica iz voza
 
Režija: Ahmed Imamović
 
Žanr: Drama, Ratni

 

yg0r3gmcf0q.png
 
 
jIfwDCv.jpg
 
Go West (2005) DVDRip.XviD.avi
 
SFYUbuP.jpg
 
Hidden Content
You'll be able to see the hidden content once you thank this post.

  tumblr_o89ik1YZEl1ssbvp5o1_500.gif

 

Za repload mrtvih linkova (domaćih filmova) ili želje za postavljanjem nekog filma kog ne možete da pronađete, obratite mi se putem privatne poruke.


Thanked by 38 Members:
baraba , Chamac96 , ajdinovski , Verdeja , lilke , mcyoka007 , danijeladanijel , alexxxxa , grunfic , aleksacv , Alamo74 , Auto Plus , Zelenac1 , miki1962 , Victor87 , leoh , beograd1960' , djtomcraft , draganiuss , indukcia , vladimir sramka , dadisajo , zoki71 , mesele , toco222 , BobbyPeruAd , somrda , Franci , miki-maus23 , vesnapedja , liquid , morpheus0106 , ed gain , icaleptir , MaliIgicGregor , Heshan , bproblem , Korto74



0 user(s) are reading this topic

0 members, 0 guests, 0 anonymous users