Jump to content

Dobrodošli na Balkandownload.org
Tražite domaće knjige, exyu magazine, sinhronizirane crtane filmove, PC i ostale igre, strane i domaće filmove, dokumentarce, stranu i domaću muziku, itd. ? Ne morate tražiti dalje jer sve ćete to naći kod nas, uredno postavljeno i spremno za download. Osim toga registracijom možete sudjelovati u raznim postojećim temama na forumu, otvarati nove teme, sudjelovati u chatu i još mnogo toga. Ako već imaš otvoren račun, logiraj se ovde ,a ako želiš saznati zašto smo najbolji otvori novi račun i uverite se sami :)
Photo

Mali svet (2003)


2 replies to this topic

#1
Zoran_

Zoran_

    Gold Member

  • VIP
  • PipPipPipPipPipPip
  • 5,988 posts
  • 149553 thanks
Mali svet (2003)
 
 
MaliSvet2003.png
 
Su6Ksi6.jpg
 

Please Login or Register to see this Hidden Content

 
Ogi je decak koji je mogao da se rodi, ali bi u bitnim momentima, kada je trebalo da bude zacet,sudbina nanovo izmešala špil. S pocetka ga roditelji (Miki Manojlovic i Ana Sofrenovic) nisu želeli, a kasnije, kada su ga želeli, nisu mogli da ga imaju. Stoga nam "fiktivni" Ogi prica svoju tužnu pricu kroz jedan obican dan svojih nesudenih roditelja , nekog 16.septembra. U pricu se sticajem cudnih okolnosti ukljucuju i dva policajca (Laza Ristovski i Bogdan Diklic), sitni lopov (Branko Ðuric), poslasticarka (Irena Micijevic) i mnogi drugi.

Molbe za moje linkove, šaljite na PP.

 

Zabranjeno je kopiranje mojih linkova,reupload i postavljanje na druge forume!


Thanked by 47 Members:
jadjonbv , MaliIgicGregor , Zelenac1 , zydeco , Topcider , Boriz Grozni , Bogdan2011 , fritz200300 , taboo89 , icaleptir , jovicai , danijeladanijel , urosm , kresomirovic , darkan , Holyfantasy , mbes , draganadragana2010 , Goran Katana , kana63 , ivva23 , sputnik , Malik1105 , Lazar Aleksic , Miki1973 , rakia1960 , senilni , Tajson , Budan87 , bojan012 , urs517 , Wolf 13 , rakalica , pupadzija , bralica , lonac , dimigrej , zorandju , jockey , tanatos , umunjeni , mige86 , tutankamon , schkmebwe , matkox , jovan.marinovic , vezor

#2
Zoran_

Zoran_

    Gold Member

  • VIP
  • PipPipPipPipPipPip
  • 5,988 posts
  • 149553 thanks
Mali svet (2003)
 
 
 
0f1wwugdfz.png
 
MaliSvet2003.avi.gif
 
MaliSvet2003.avi.jpg
 
Oets6ur.gif
 
Mali svet (2003) DVDRip.XviD.avi
 
SFYUbuP.jpg
 
Hidden Content
You'll be able to see the hidden content once you thank this post.

Molbe za moje linkove, šaljite na PP.

 

Zabranjeno je kopiranje mojih linkova,reupload i postavljanje na druge forume!


Thanked by 49 Members:
DJ Zlayo , blacksad011 , mikula11 , Cocco Bill , jadjonbv , samojako12 , lena1 , MaliIgicGregor , zydeco , goransokolovic.fr , krunoslavb , Topcider , ajdinovski , sloznabraca , fladoje , Dalstevinormalni , satyr83 , runjaa , ivonet , Boriz Grozni , mciplic , JOOjo , zarkoe ekmedzic , chefko , Zare94 , Myco00 , milan199777 , Bogdan2011 , rafael13 , tejicma , Milfir , taboo89 , Igorzrulez , danep , kockari , toco222 , mkluk , zoran48 , Alamo74 , jumanjinz , milosmilosmilos , vrdule , salgija , zaostrog , Pacost , fffunkymannn , miki-maus23 , icaleptir , Miki_Kiki_Riki

#3
Wolf 13

Wolf 13

    Advanced Member

  • Members
  • PipPipPip
  • 426 posts
  • 33531 thanks
Mali svet (2003) DVDrip DD5.1 x264 by Wolf
(MKV)
 
bFEZ9n5.jpg
 

Please Login or Register to see this Hidden Content

 

General
Unique ID                   : 17917977514198283896756624656766491851 (0xD7AE07F62A1E9A08E67409965BE5CCB)
Complete name               : Mali svet (2003) DVDrip DD5.1 x264 by Wolf.mkv
Format                      : Matroska
Format version              : Version 4
File size                   : 1.04 GiB
Duration                    : 1 h 21 min
Overall bit rate            : 1 823 kb/s
Encoded date                : UTC 2019-10-01 11:33:15
Writing application         : mkvmerge v37.0.0 ('Leave It') 64-bit
Writing library             : libebml v1.3.9 + libmatroska v1.5.2
 
Video
ID                          : 1
Format                      : AVC
Format/Info                 : Advanced Video Codec
Format profile              : [email protected]
Format settings             : CABAC / 5 Ref Frames
Format settings, CABAC      : Yes
Format settings, Reference  : 5 frames
Codec ID                    : V_MPEG4/ISO/AVC
Duration                    : 1 h 21 min
Bit rate                    : 1 566 kb/s
Width                       : 720 pixels
Height                      : 576 pixels
Display aspect ratio        : 1.85:1
Frame rate mode             : Constant
Frame rate                  : 25.000 FPS
Standard                    : PAL
Color space                 : YUV
Chroma subsampling          : 4:2:0
Bit depth                   : 8 bits
Scan type                   : Progressive
Bits/(Pixel*Frame)          : 0.151
Stream size                 : 915 MiB (86%)
Title                       : Mali svet (2003)
Writing library             : x264 core 148 r2638 7599210
Encoding settings           : cabac=1 / ref=5 / deblock=1:0:0 / analyse=0x3:0x113 / me=umh / subme=7 / psy=1 / psy_rd=1.00:0.00 / mixed_ref=1 / me_range=32 / chroma_me=1 / trellis=2 / 8x8dct=1 / cqm=0 / deadzone=21,11 / fast_pskip=1 / chroma_qp_offset=-2 / threads=3 / lookahead_threads=1 / sliced_threads=0 / nr=0 / decimate=1 / interlaced=0 / bluray_compat=0 / constrained_intra=0 / bframes=3 / b_pyramid=2 / b_adapt=2 / b_bias=0 / direct=3 / weightb=1 / open_gop=0 / weightp=2 / keyint=250 / keyint_min=25 / scenecut=40 / intra_refresh=0 / rc_lookahead=40 / rc=2pass / mbtree=1 / bitrate=1566 / ratetol=1.0 / qcomp=0.60 / qpmin=10 / qpmax=51 / qpstep=4 / cplxblur=20.0 / qblur=0.5 / vbv_maxrate=50000 / vbv_bufsize=62500 / nal_hrd=none / filler=0 / ip_ratio=1.40 / aq=1:1.00
Language                    : Serbian
Default                     : Yes
Forced                      : No
 
Audio
ID                          : 2
Format                      : E-AC-3
Format/Info                 : Enhanced AC-3
Commercial name             : Dolby Digital Plus
Codec ID                    : A_EAC3
Duration                    : 1 h 21 min
Bit rate mode               : Constant
Bit rate                    : 256 kb/s
Channel(s)                  : 6 channels
Channel layout              : L R C LFE Ls Rs
Sampling rate               : 48.0 kHz
Frame rate                  : 31.250 FPS (1536 SPF)
Compression mode            : Lossy
Stream size                 : 150 MiB (14%)
Title                       : Mali svet (2003)
Language                    : Serbian
Service kind                : Complete Main
Default                     : Yes
Forced                      : No
 
epYscVA.png
Hidden Content
You'll be able to see the hidden content once you thank this post.
zbNKcak.jpg
Hidden Content
You'll be able to see the hidden content once you thank this post.
 
QQkgauh.png
nbgJ3wx.jpg


Thanked by 24 Members:
bobanovski , dajkan , sweep27 , baronrajo , Vule83 , lena1 , Alamo74 , woodooye , blauer , danep , MaliIgicGregor , stankokljajic , pero374 , tiho666 , Jokso , rusko , stimpson2 , Zelenac1 , icaleptir , Topcider , Miki_Kiki_Riki , dedamiro , fffunkymannn , beograd1960'



0 user(s) are reading this topic

0 members, 0 guests, 0 anonymous users