Jump to content

Dobrodošli na Balkandownload.org
Tražite domaće knjige, exyu magazine, sinhronizirane crtane filmove, PC i ostale igre, strane i domaće filmove, dokumentarce, stranu i domaću muziku, itd. ? Ne morate tražiti dalje jer sve ćete to naći kod nas, uredno postavljeno i spremno za download. Osim toga registracijom možete sudjelovati u raznim postojećim temama na forumu, otvarati nove teme, sudjelovati u chatu i još mnogo toga. Ako već imaš otvoren račun, logiraj se ovde ,a ako želiš saznati zašto smo najbolji otvori novi račun i uverite se sami :)
Photo

Boomerang (2001)


2 replies to this topic

#1
Zoran_

Zoran_

    Silver Member

  • VIP
  • PipPipPipPipPip
  • 4,804 posts
  • 91719 thanks

Boomerang (2001)


pRu0.png

imdb6.jpg

Please Login or Register to see this Hidden Content


Do juce, ovo je bila tragedija. Danas, nasa filmska prica je komedija. Ovo je prica u kojoj niko nema sta da izgubi. U njoj su policija i kriminalci, dileri kokaina i baba sera, filmofili i taksisti,pijanci i pedesetogodisnje ali i daleko mladje, fam fatal: zaista se moze tvrditi da su likovi ove price oni koje poznajemo, vidjamo svaki dan. Oni zive svoj zivot, onako kako mogu u mrezi ovog ukletog prostora.

dvbxt54e2qh.png

pRuY.gif

pRuG.jpg

downloade0cdd.gif

Boomerang (2001) DVDRip.XviD.avi

filesflesh2.jpg

Hidden Content
You'll be able to see the hidden content once you thank this post.

KXPZCGL.gif

 

 

Molbe za moje linkove, šaljite na PP.

 

Zabranjeno je kopiranje mojih linkova,reupload i postavljanje na druge forume!


Thanked by 96 Members:

#2
pejcev

pejcev

    Starting Member

  • Members
  • PipPip
  • 85 posts
  • 1141 thanks

Bumerang 720p (2001)

 

PJwsHcb.jpg

 

Hidden Content
You'll be able to see the hidden content once you thank this post.

Edited by Biotloneta, 16 June 2018 - 07:51.
Linkovi moraju biti u hide i code tagovima.


Thanked by 73 Members:
ifet , zextroy , dloutlaw , dreidolin , icaleptir , chica_kure , MBakula , djoole , nemos87 , ModestiKG , LuuuuLe , asdasdasdsa , Dacha98 , dimipage , radonja86 , boldy021 , njaaah , Urosito , teletabiss , laskavac , zvonkora , verdant , danijeladanijel , cila , miliakademac , graf , VitoScaletta68 , dxdalibor , retype12345 , triggerman , vicafreak , scofield123 , ronovar , gocko5 , Ilijaax , vladimir sramka , katevojtković , bajingordana , cldarko , aca72 , Bjarnar , kockari , janaj308 , Hornet_UE , tatam , branislav123 , sevastijan64 , mikiburek1990 , Stefan16 , rodadus , aleks989 , tadicd , DenisBan , bobicana , salgija , milanche11 , Prene , sopran019 , rakonja , robertp , alando9 , gorza , grof65 , opetopet , woodooye , draganik , jumanjinz , zorandju , beograd75 , retar , nesom , zzoki , plavi59

#3
Wolf 13

Wolf 13

    Advanced Member

  • Members
  • PipPipPip
  • 286 posts
  • 15702 thanks
Boomerang (2001) DVDrip E-AC3 x264 by Wolf
(MKV)
 
mwmBpYe.jpg
 

Please Login or Register to see this Hidden Content

 

General
Unique ID                   : 169085068402007955866933119110317136500 (0x7F349981E74786734AB7D00385BCDA74)
Complete name               : Boomerang (2001) DVDrip E-AC3 x264 by Wolf.mkv
Format                      : Matroska
Format version              : Version 4 / Version 2
File size                   : 1.08 GiB
Duration                    : 1 h 27 min
Overall bit rate            : 1 758 kb/s
Encoded date                : UTC 2018-11-05 17:22:11 / UTC 2018-11-05T14:51:27Z
Writing application         : mkvmerge v28.2.0 ('The Awakening') 64-bit
Writing library             : libebml v1.3.6 + libmatroska v1.4.9 / Lavf57.7.2
 
Video
ID                          : 1
Format                      : AVC
Format/Info                 : Advanced Video Codec
Format profile              : High [email protected]
Format settings             : CABAC / 8 Ref Frames
Format settings, CABAC      : Yes
Format settings, ReFrames   : 8 frames
Codec ID                    : V_MPEG4/ISO/AVC
Duration                    : 1 h 27 min
Bit rate                    : 1 500 kb/s
Width                       : 694 pixels
Height                      : 432 pixels
Display aspect ratio        : 1.713
Original display aspect rat : 1.714
Frame rate mode             : Constant
Frame rate                  : 25.000 FPS
Color space                 : YUV
Chroma subsampling          : 4:2:0
Bit depth                   : 10 bits
Scan type                   : Progressive
Bits/(Pixel*Frame)          : 0.200
Stream size                 : 920 MiB (83%)
Title                       : Boomerang (2001)
Writing library             : x264 core 155 r2901 7d0ff22
Encoding settings           : cabac=1 / ref=8 / deblock=1:-1:-1 / analyse=0x3:0x133 / me=umh / subme=9 / psy=1 / psy_rd=1.00:0.15 / mixed_ref=1 / me_range=16 / chroma_me=1 / trellis=2 / 8x8dct=1 / cqm=0 / deadzone=21,11 / fast_pskip=1 / chroma_qp_offset=-3 / threads=6 / lookahead_threads=1 / sliced_threads=0 / nr=0 / decimate=1 / interlaced=0 / bluray_compat=0 / constrained_intra=0 / bframes=3 / b_pyramid=2 / b_adapt=2 / b_bias=0 / direct=3 / weightb=1 / open_gop=0 / weightp=2 / keyint=250 / keyint_min=25 / scenecut=40 / intra_refresh=0 / rc_lookahead=60 / rc=2pass / mbtree=1 / bitrate=1500 / ratetol=1.0 / qcomp=0.60 / qpmin=0 / qpmax=81 / qpstep=4 / cplxblur=20.0 / qblur=0.5 / vbv_maxrate=150000 / vbv_bufsize=187500 / nal_hrd=none / filler=0 / ip_ratio=1.40 / aq=1:1.00
Language                    : Serbian
Default                     : Yes
Forced                      : No
Color range                 : Limited
Color primaries             : BT.601 PAL
Transfer characteristics    : BT.709
Matrix coefficients         : BT.601
Statistics Tags Issue       : mkvmerge v28.2.0 ('The Awakening') 64-bit 2018-11-05 17:22:11 / mkvmerge v28.2.0 ('The Awakening') 64-bit 2018-11-05 17:22:11 / UTC 2018-11-05T14:51:27Z
FromStats_BitRate           : 1499832
FromStats_Duration          : 01:27:40.000000000
FromStats_FrameCount        : 131500
FromStats_StreamSize        : 986140051
 
Audio
ID                          : 2
Format                      : E-AC-3
Format/Info                 : Enhanced Audio Coding 3
Codec ID                    : A_EAC3
Duration                    : 1 h 27 min
Bit rate mode               : Constant
Bit rate                    : 256 kb/s
Channel(s)                  : 6 channels
Channel positions           : Front: L C R, Side: L R, LFE
Sampling rate               : 48.0 kHz
Frame rate                  : 187.500 FPS (256 SPF)
Compression mode            : Lossy
Delay relative to video     : -5 ms
Stream size                 : 161 MiB (15%)
Title                       : Boomerang (2001)
Language                    : Serbian
Service kind                : Complete Main
Default                     : Yes
Forced                      : No
Statistics Tags Issue       : mkvmerge v28.2.0 ('The Awakening') 64-bit 2018-11-05 17:22:11 / mkvmerge v28.2.0 ('The Awakening') 64-bit 2018-11-05 17:22:11 / UTC 2018-11-05T14:51:27Z
FromStats_BitRate           : 256000
FromStats_Duration          : 01:27:39.904000000
FromStats_FrameCount        : 164372
FromStats_StreamSize        : 168316928
 
epYscVA.png
Hidden Content
You'll be able to see the hidden content once you thank this post.
 
l52hnm1.png
FjeTLwd.jpg


Thanked by 18 Members:
ifet , Alamo74 , kprekrat2 , bratobulje , Branko101 , retype12345 , masterlaky , Prospector , dejan.petrovic , Zelenac1 , Franci , lika , danep , retar , beograd1960' , zoran48 , Miki_Kiki_Riki , Biotloneta



0 user(s) are reading this topic

0 members, 0 guests, 0 anonymous users