Jump to content

Dobrodošli na Balkandownload.org
Tražite domaće knjige, exyu magazine, sinhronizirane crtane filmove, PC i ostale igre, strane i domaće filmove, dokumentarce, stranu i domaću muziku, itd. ? Ne morate tražiti dalje jer sve ćete to naći kod nas, uredno postavljeno i spremno za download. Osim toga registracijom možete sudjelovati u raznim postojećim temama na forumu, otvarati nove teme, sudjelovati u chatu i još mnogo toga. Ako već imaš otvoren račun, logiraj se ovde ,a ako želiš saznati zašto smo najbolji otvori novi račun i uverite se sami :)
Photo

Potera za Sreć(k)om (2005)


1 reply to this topic

#1
ludimilojko88

ludimilojko88

    Advanced Member

  • Members
  • PipPipPip
  • 368 posts
  • 28221 thanks

Potera za Sreć(k)om (2005)

 

potera.jpg

 

U iznajmljenom stanu u Beogradu živi Srećko (Nikola Vujović) koji uvek igra istu loto kombinaciju u nadi da će jednog dana osvojiti premiju. U njega je zaljubljena Višnja (Milena Pavlović), lokalna prodavačica loto listića. Jedne večeri Srećko dobija premiju vrednu nekoliko miliona evra. Međutim, spletom nesrećnih okolnosti dobitnički listić dospeva u ruke Žileta i Saleta (Gordan Kičić i Slobodan Ninković), vlasnika lokalnog kafića. Nespremni za upravljanje tolikim novcem, oni odlaze na Krf u nadi da će ih grčko ostrvo poslovno nadahnuti.
 
Put Krfa, za tiketom, kreću i dva beogradska „kontroverzna biznismena“ (Dragan Bjelogrlić i Dragoljub Ljubičić), inspektor policije (Srđan Todorović), zabrinuti PR Žiletovog i Saletovog kafića (Isidora Minić), Višnja koja je zapamtila dobitnu kombinaciju, i naravno, Srećko...
 
Izvorni naslov:Potera za sreć(k)om
Žanr:komedija
Režija: Milorad Milinković
Scenario:Voja Žanetić
Producent: Intermedija netvork i MTS, Beograd
Glavne uloge: Gordan Kičić,Nikola Vujović,Srđan Miletić
Isidora Minić,Slobodan Ninković,Dragan Bjelogrlić
Muzika:Mladen Tarbuk
Godina:2005.
Trajanje:97 min.
Zemlja:Srbija
Jezik:srpski
 
 
 


Thanked by 92 Members:

#2
Wolf 13

Wolf 13

    Advanced Member

  • Members
  • PipPipPip
  • 426 posts
  • 33313 thanks
Potera za Srec(k)om (2005) DVDrip DD5.1 x264 by Wolf
(MKV)
 
XVTZ72P.jpg
 

Please Login or Register to see this Hidden Content

 

General
Unique ID                   : 71493617647034034630616185475122329643 (0x35C92B7EF3F98FD7C3E9FE9643C3F82B)
Complete name               : Potera za Srec(k)om (2005) DVDrip DD5.1 x264 by Wolf.mkv
Format                      : Matroska
Format version              : Version 4
File size                   : 1.14 GiB
Duration                    : 1 h 32 min
Overall bit rate            : 1 758 kb/s
Encoded date                : UTC 2019-09-30 19:39:39
Writing application         : mkvmerge v37.0.0 ('Leave It') 64-bit
Writing library             : libebml v1.3.9 + libmatroska v1.5.2
 
Video
ID                          : 1
Format                      : AVC
Format/Info                 : Advanced Video Codec
Format profile              : High [email protected]
Format settings             : CABAC / 5 Ref Frames
Format settings, CABAC      : Yes
Format settings, Reference  : 5 frames
Codec ID                    : V_MPEG4/ISO/AVC
Duration                    : 1 h 32 min
Bit rate                    : 1 500 kb/s
Width                       : 710 pixels
Height                      : 576 pixels
Display aspect ratio        : 16:9
Original display aspect rat : 4:3
Frame rate mode             : Constant
Frame rate                  : 25.000 FPS
Color space                 : YUV
Chroma subsampling          : 4:2:0
Bit depth                   : 10 bits
Scan type                   : Progressive
Bits/(Pixel*Frame)          : 0.147
Stream size                 : 992 MiB (85%)
Title                       : Potera za Srec(k)om (2005)
Writing library             : x264 core 155 r2901 7d0ff22
Encoding settings           : cabac=1 / ref=5 / deblock=1:-1:-1 / analyse=0x3:0x113 / me=hex / subme=8 / psy=1 / psy_rd=1.00:0.15 / mixed_ref=1 / me_range=16 / chroma_me=1 / trellis=2 / 8x8dct=1 / cqm=0 / deadzone=21,11 / fast_pskip=1 / chroma_qp_offset=-3 / threads=6 / lookahead_threads=1 / sliced_threads=0 / nr=0 / decimate=1 / interlaced=0 / bluray_compat=0 / constrained_intra=0 / bframes=3 / b_pyramid=2 / b_adapt=1 / b_bias=0 / direct=3 / weightb=1 / open_gop=0 / weightp=2 / keyint=250 / keyint_min=25 / scenecut=40 / intra_refresh=0 / rc_lookahead=50 / rc=2pass / mbtree=1 / bitrate=1500 / ratetol=1.0 / qcomp=0.60 / qpmin=0 / qpmax=81 / qpstep=4 / cplxblur=20.0 / qblur=0.5 / vbv_maxrate=150000 / vbv_bufsize=187500 / nal_hrd=none / filler=0 / ip_ratio=1.40 / aq=1:1.00
Language                    : Serbian
Default                     : Yes
Forced                      : No
Color range                 : Limited
Color primaries             : BT.601 PAL
Transfer characteristics    : BT.709
Matrix coefficients         : BT.601
 
Audio
ID                          : 2
Format                      : E-AC-3
Format/Info                 : Enhanced AC-3
Commercial name             : Dolby Digital Plus
Codec ID                    : A_EAC3
Duration                    : 1 h 32 min
Bit rate mode               : Constant
Bit rate                    : 256 kb/s
Channel(s)                  : 6 channels
Channel layout              : L R C LFE Ls Rs
Sampling rate               : 48.0 kHz
Frame rate                  : 31.250 FPS (1536 SPF)
Compression mode            : Lossy
Delay relative to video     : -5 ms
Stream size                 : 169 MiB (15%)
Title                       : Potera za Srec(k)om (2005)
Language                    : Serbian
Service kind                : Complete Main
Default                     : Yes
Forced                      : No
 
epYscVA.png
Hidden Content
You'll be able to see the hidden content once you thank this post.
zbNKcak.jpg
Hidden Content
You'll be able to see the hidden content once you thank this post.
 
kWd68Lk.png
WAZEj8F.jpg


Thanked by 45 Members:
Jov:NS , kostolac , garovix , Nenad71088 , bobankos , Pera34 , lena1 , Flippy , Boxksi , goraneo , xxxdacha , niko-liko , salgija , baronrajo , zoxkg , gorza , slomljenakrila , goransokolovic.fr , jovanicv , 360101 , vukotastosic , Alamo74 , blauer , balkanac011 , cigoyner , MaliIgicGregor , pero374 , rusko , bosnaBosnia , Zelenac1 , icaleptir , Homss , Topcider , liquid , ss_semi , artcamora , Franci , Biotloneta , beograd1960' , miliandjelijater , sabor , banecar50 , Jokso , MacAir , Vule83



0 user(s) are reading this topic

0 members, 0 guests, 0 anonymous users